Великий перемол или Академическое дело [2013, Документальный, история, SATRip] (1-4 серии из 4)


Статистика раздачи [Обновить пиров]
Размер:  1.4 GB   |    Зарегистрирован:  8 месяцев 25 дней   |    Скачан:  0 раз

Полного источника не было: Никогда

Личеров:  3  [  0 KB/s  ]   Подробная статистика пиров
 
   
 
 
 

[Цитировать]

Великий перемол или Академическое дело Год выпуска: 2013
Страна: Россия
Жанр: Документальный, история
Продолжительность: 4 x ~ 00:25:45
Перевод: Не требуется
Русские субтитры: нет
Производство: ЗАО "Сигма Видео"
Описание: В архиве Петербургского отделения Академии наук России хранятся уникальные документы периода "Великого перемола", происходившего в Академии наук СССР с 1925 по 1940. Это начало и продолжение громкого "Академического дела". Цикл состоит из 4-х фильмов. В каждом из них участвует лауреат Нобелевской премии, академик Жорес Иванович Алферов...
качество: SATRip
формат: AVI
видеокодек: DivX
аудиокодек: MP3
Видео: MPEG-4 Visual, DivX 5, 704 х 528 (4:3), 25,000 кадров/сек, 1798 Кбит/с., 0.193 бит/пиксель
Аудио: MP3, 48,0 КГц, 128 Кбит/сек, 2 канала
Совместный релиз Мувитролль и mikloeff
Рип: mikloeff

Список эпизодов

1. Непременный секретарь
Этот фильм посвящен Сергею Федоровичу Ольденбургу, который на протяжении четверти века был непременным секретарем с начала Императорской, затем Российской, а потом Академии наук СССР. Ольденбург по своим взглядам был убежденным монархистом, но после 1917 года он понял, что необходимо сотрудничать с большевиками для сохранения Академии и ученых. Трудности этих компромиссов и борьба с новой властью связаны были с выборами 1929 года. В этот период и начинается драматическая история бывшей Императорской академии.
2. Тайна конверта №607
Обыск в 14-й комнате библиотеки Академии наук, который и явился началом всего "Академического дела".
3. Академическое дело с продолжением
Рассказ об аресте ученых по "Академическому делу" в 1930-е годы. Вместе с известными учеными были арестованы и члены кружка молодых историков, среди которых была Наталья Сергеевна Штакельберг, оставившая воспоминания о днях, проведенных в следственном изоляторе.
4. Черные шары на красном поле
Фильм о том, чем обернулось для академиков, нежелание проголосовать за кандидатов-коммунистов; о судьбах родных, которые оказались невольно привязанными ГПУ к старому "Академическому делу".
Так, была расстреляна вся семья Бенешевичей, а в 1942 году сын известного историка Сергея Федоровича Платонова; тогда пострадали не только ученые и их дети, но даже внуки.

MediaInfo

Общее
Полное имя : E:\неоформлені\Великий перемол или Академическое дело\1. Великий перемол или Академическое дело.avi
Формат : AVI
Формат/Информация : Audio Video Interleave
Размер файла : 357 Мбайт
Продолжительность : 25 м.
Общий поток : 1936 Кбит/сек
Библиотека кодирования : VirtualDub build 32842/release
Видео
Идентификатор : 0
Формат : MPEG-4 Visual
Параметр BVOP формата : Нет
Параметр QPel формата : Нет
Параметр GMC формата : Без точки перехода
Параметр матрицы формата : Default (H.263)
Идентификатор кодека : DX50
Идентификатор кодека/Подсказка : DivX 5
Продолжительность : 25 м.
Битрейт : 1798 Кбит/сек
Ширина : 704 пикселя
Высота : 528 пикселей
Соотношение сторон : 4:3
Частота кадров : 25,000 кадров/сек
Цветовое пространство : YUV
Субдискретизация насыщенности : 4:2:0
Битовая глубина : 8 бит
Тип развёртки : Прогрессивная
Метод сжатия : С потерями
Бит/(Пиксели*Кадры) : 0.193
Размер потока : 331 Мбайт (93%)
Библиотека кодирования : DivX 5.2.1 (WaffleDay) (UTC 2004-09-08)
Аудио
Идентификатор : 1
Формат : MPEG Audio
Версия формата : Version 1
Профиль формата : Layer 3
Режим : Joint stereo
Расширение режима : MS Stereo
Идентификатор кодека : 55
Идентификатор кодека/Подсказка : MP3
Продолжительность : 25 м.
Вид битрейта : Постоянный
Битрейт : 128 Кбит/сек
Каналы : 2 канала
Частота : 48,0 КГц
Метод сжатия : С потерями
Размер потока : 23,6 Мбайт (7%)
Выравнивание : Разделение по промежуткам
Продолжительность промежутка : 40 мс. (1,00 видеокадр)
Время предзагрузки промежутка : 500 мс.

Скриншоты

[teatrix.ru].t16967.torrent 
Торрент: Зарегистрирован [ 2016-03-17 00:30 ] · 6F8753E9D1C3AE1E911B9DE068BE948D19F32467

Скачать .torrent

Скачать

15 KB

Статус: проверено
Скачан: 0 раз
Размер: 1.4 GB
terms.php



Быстрый ответ

Имя:

      
Для отправки сообщений необходимо включить JavaScript
Показать сообщения:    

Текущее время: 11-Дек 03:22

Часовой пояс: UTC + 3


Вы можете начинать темы
Вы можете отвечать на сообщения
Вы не можете редактировать свои сообщения
Вы не можете удалять свои сообщения
Вы не можете голосовать в опросах
Вы не можете прикреплять файлы к сообщениям
Вы можете скачивать файлы