Свадьба в Малиновке. Непридуманные истории (17.03.2013) (Михаил Ананьев) [2013, Документальный, SATRip]


Статистика раздачи [Обновить пиров]
Размер:  646 MB   |    Зарегистрирован:  8 месяцев 17 дней   |    Скачан:  0 раз

Полного источника не было: Никогда

Личеров:  3  [  0 KB/s  ]   Подробная статистика пиров
 
   
 
 
 

[Цитировать]

Свадьба в Малиновке. Непридуманные истории
Год выпуска: 2013
Страна: Россия
Жанр: Документальный
Продолжительность: 00:51:58
Перевод: Не требуется
Русские субтитры: нет
Режиссер: Михаил Ананьев
Описание: "Свадьба в Малиновке" вышла на экраны 45 лет назад и стала лидером кинопроката 1967 года. Это была первая советская цветная, широкоформатная, музыкальная комедия.
Успех картине обеспечил звездный состав актеров – Михаил Пуговкин, Владимир Самойлов, Зоя Фёдорова, Тамара Носова,Евгений Лебедев, Николай Сличенко и другие.
Главные роли в фильме сыграли молодые актеры. Мы нашли их всех. Людмила Алфимова (Софья) живет в украинском селе, её собственная жизнь похожа на фильм-мелодраму: любовь, измены, зависть соседей. Валентина Лысенко (Яринка) больше не снималась в кино. Она преподает в театральном институте и сорок пять лет вспоминает свою единственную звездную роль. Гелий Сысоев (Андрейка) долгое время получал посылки от своих поклонниц с Украины, из-за этого над ним посмеивались в ленинградском театре имени Пушкина, в котором он прослужил много лет.
Мы побывали в настоящей Малиновке. Такое село действительно существует на западе Украины. Причем, это был первый визит журналистов в Малиновку. До недавнего времени село было закрытым объектом. На его территории находились несколько войсковых частей. Малиновки не было даже на карте. Но существует немало подтверждений тому, что именно это село имели в виду авторы музыкальной комедии.
Участники съемочного процесса, а также их родные расскажут много подробностей о том, как создавался фильм.
Своими впечатлениями о культовой советской комедии поделились и современные ее поклонники – Роман Виктюк, Дмитрий Дибров, Наталья Королева, Александр Олешко.
Доп. информация: В фильме приняли участие: Николай Сличенко, Людмила Алфимова, Валентина Лысенко, Гелий Сысоев, Ирина Пуговкина, вдова Михаила Пуговкина, Василиса Тутышкина, дочь режиссера фильма Андрея Тутышкина, Александр Самойлов, сын актера Владимира Самойлова.
Качество: SATRip
Формат: AVI
Видеокодек: XviD
Аудиокодек: MP3
Видео: 720x400 (16:9), 25 fps, ~1600 kbps avg, 0.222 bit/pixel
Аудио: 48 kHz, MPEG Layer 3, 2 ch, ~128.00 kbps avg

MediaInfo

Общее
Формат : AVI
Формат/Информация : Audio Video Interleave
Размер файла : 646 Мбайт
Продолжительность : 51 м.
Общий поток : 1738 Кбит/сек
Программа кодирования : VirtualDubModRus 1.5.10.2 (build 2540/release)
Библиотека кодирования : VirtualDubMod build 2540/release
Видео
Идентификатор : 0
Формат : MPEG-4 Visual
Параметр BVOP формата : 1
Параметр QPel формата : Нет
Параметр GMC формата : Без точки перехода
Параметр матрицы формата : Default (H.263)
Режим смешивания : Сжатый битовый поток
Идентификатор кодека : DX50
Идентификатор кодека/Подсказка : DivX 5
Продолжительность : 51 м.
Битрейт : 1600 Кбит/сек
Ширина : 720 пикселей
Высота : 400 пикселей
Соотношение сторон : 16:9
Частота кадров : 25,000 кадров/сек
Цветовое пространство : YUV
Субдискретизация насыщенности : 4:2:0
Битовая глубина : 8 бит
Тип развёртки : Прогрессивная
Метод сжатия : С потерями
Бит/(Пиксели*Кадры) : 0.222
Размер потока : 595 Мбайт (92%)
Библиотека кодирования : DivX 6.8.5 (UTC 2009-08-20)
Аудио
Идентификатор : 1
Формат : MPEG Audio
Версия формата : Version 1
Профиль формата : Layer 3
Режим : Joint stereo
Расширение режима : MS Stereo
Идентификатор кодека : 55
Идентификатор кодека/Подсказка : MP3
Продолжительность : 51 м.
Вид битрейта : Постоянный
Битрейт : 128 Кбит/сек
Каналы : 2 канала
Частота : 48,0 КГц
Метод сжатия : С потерями
Задержка видео : 8 мс.
Размер потока : 47,6 Мбайт (7%)
Выравнивание : Разделение по промежуткам
Продолжительность промежутка : 40 мс. (1,00 видеокадр)
Время предзагрузки промежутка : 500 мс.

Скриншоты

Скринлист

[teatrix.ru].t16974.torrent 
Торрент: Зарегистрирован [ 2016-03-17 00:32 ] · 0BE4A657591E79FD500A41DE29B8D9921662CF68

Скачать .torrent

Скачать

13 KB

Статус: проверено
Скачан: 0 раз
Размер: 646 MB
terms.php



Показать сообщения:    

Текущее время: 03-Дек 09:50

Часовой пояс: UTC + 3


Вы не можете начинать темы
Вы не можете отвечать на сообщения
Вы не можете редактировать свои сообщения
Вы не можете удалять свои сообщения
Вы не можете голосовать в опросах
Вы не можете прикреплять файлы к сообщениям
Вы можете скачивать файлы