Классика рока - The Doors - No-One Here Gets Out Alive [1981, Документальный, SATRip]


Статистика раздачи [Обновить пиров]
Размер:  1.44 GB   |    Зарегистрирован:  8 месяцев 20 дней   |    Скачан:  0 раз

Полного источника не было: Никогда

Личеров:  3  [  0 KB/s  ]   Подробная статистика пиров
 
   
 
 
 

[Цитировать]

Классика рока - The Doors - No-One Here Gets Out Alive
Год выпуска: 1981
Страна: США
Жанр: Документальный
Продолжительность: 00:59:45
Перевод: Одноголосый закадровый
Русские субтитры: нет
Описание: 1965 год. На пляже Лос-Анджелеса повстречались студенты Рэй Манзарек и Джим Моррисон. Джим спел своему приятелю песню собственного сочинения. Итогом стало создание одной из самых противоречивых и загадочных рок-групп всех времен - "The Doors". Их ждал оглушительный успех. Их любили все - от школьниц до музыкальных критиков. Но конец у этой истории был печальный. Правдивый рассказ о начале и конце группы "The Doors" - в фильме из цикла "Классика рока
Сэмпл: http://multi-up.com/845171
качество: SATRip
формат: MPG
видеокодек: MPEG2
аудиокодек: MP2
Видео: MPEG Video Version 2, 3 220 Kbps, 544x576, 4:3, 25.000 fps
Аудио: MPEG Audio Version 1 Layer 2, 160 Kbps, 48.0 KHz, 2 channels, Lossy

MediaInfo

General
Complete name : E:\_trnt\Out\Doors - No-One Here Gets Out Alive.mpg
Format : MPEG-PS
File size : 1.44 GiB
Duration : 59mn 44s
Overall bit rate mode : Variable
Overall bit rate : 3 448 Kbps
Video
ID : 224 (0xE0)
Format : MPEG Video
Format version : Version 2
Format profile : Main@Main
Format settings, BVOP : Yes
Format settings, Matrix : Custom
Format settings, GOP : Variable
Duration : 59mn 44s
Bit rate mode : Variable
Bit rate : 3 220 Kbps
Maximum bit rate : 5 000 Kbps
Width : 544 pixels
Height : 576 pixels
Display aspect ratio : 4:3
Frame rate : 25.000 fps
Color space : YUV
Chroma subsampling : 4:2:0
Bit depth : 8 bits
Scan type : Interlaced
Scan order : Top Field First
Compression mode : Lossy
Bits/(Pixel*Frame) : 0.411
Time code of first frame : 00:00:00:00
Time code source : Group of pictures header
Stream size : 1.34 GiB (93%)
Audio
ID : 192 (0xC0)
Format : MPEG Audio
Format version : Version 1
Format profile : Layer 2
Duration : 59mn 44s
Bit rate mode : Constant
Bit rate : 160 Kbps
Channel(s) : 2 channels
Sampling rate : 48.0 KHz
Compression mode : Lossy
Stream size : 68.4 MiB (5%)

Скриншоты

[teatrix.ru].t16975.torrent 
Торрент: Зарегистрирован [ 2016-03-17 00:31 ] · E51094A99BDEA0CFB8A3B8BD894491CB0BE09963

Скачать .torrent

Скачать

15 KB

Статус: проверено
Скачан: 0 раз
Размер: 1.44 GB
terms.php



Быстрый ответ

Имя:

      
Для отправки сообщений необходимо включить JavaScript
Показать сообщения:    

Текущее время: 06-Дек 22:55

Часовой пояс: UTC + 3


Вы можете начинать темы
Вы можете отвечать на сообщения
Вы не можете редактировать свои сообщения
Вы не можете удалять свои сообщения
Вы не можете голосовать в опросах
Вы не можете прикреплять файлы к сообщениям
Вы можете скачивать файлы