Сваты за кадром / Серия: 1-4 из 4 (Андрей Яковлев, Эдуард Радзюкевич) [2013, Документальный, SATRip]


Статистика раздачи [Обновить пиров]
Размер:  2.36 GB   |    Зарегистрирован:  10 месяцев 3 дня   |    Скачан:  0 раз

Полного источника не было: Никогда

Личеров:  3  [  0 KB/s  ]   Подробная статистика пиров
 
   
 
 
 

[Цитировать]

Сваты за кадром -Год выпуска: 2013
Страна: Украина
Жанр: Документальный
Продолжительность: ~ 00:44:00
Перевод: Не требуется
Режиссер: Андрей Яковлев, Эдуард Радзюкевич-В ролях: Фёдор Добронравов, Татьяна Кравченко, Людмила Артемьева, Анна Кошмал, Александр Феклистов, Анна Полищук, Костя Чернокрылюк, Олеся Железняк, Николай Добрынин, Владимир Зельдин, Ольга Аросева, Даниил Белых, Инна Королёва, Эммануил Виторган, Елена Сафонова, Роман Лукьянов, Евгений Капорин, Фёдор Гуринец, Алексей Смолка, Денис Шепотинник, Татьяна Васильева, Мария Кочур, Екатерина Варченко-Описание: Знаете ли вы, что после команды "Стоп, снято!" начинается все самое интересное? Съемочная группа любимого сериала прожила со "Сватами" весь год и готова поделиться уникальными кадрами и интервью, снятыми во время напряженной работы над шестым сезоном.
Зритель увидит, как снимались самые яркие сцены сериала "Сваты 6", услышит актерские байки со съемочной площадки "Как снимается кино". Главные герои документального фильма - актеры, авторы и другие члены съемочной группы, - расскажут обо всех внештатных ситуациях, о комичных случаях и, даже, драматичных эпизодах, которые случились во время съемок. Все это в 4-серийному документальном проекте "Сваты-6. За кадром".-качество: SATRip
формат: AVI
видеокодек: XviD
аудиокодек: MP3
Видео: 720x400 (1.80:1), 25 fps, XviD build 50 ~1708 kbps avg, 0.24 bit/pixel
Аудио: 48 kHz, MPEG Layer 3, 2 ch, ~192.00 kbps avg

MI

Общее
Полное имя : D:\Раздачи\Сваты за кадром 2013 SATRip\Сваты за кадром 01 2013 SATRip.avi
Формат : AVI
Формат/Информация : Audio Video Interleave
Размер файла : 603 Мбайт
Продолжительность : 44 м.
Общий поток : 1910 Кбит/сек
Программа кодирования : VirtualDubModRus 1.5.10.2 (build 2542/release)
Библиотека кодирования : VirtualDubMod build 2542/release
Видео
Идентификатор : 0
Формат : MPEG-4 Visual
Профиль формата : Advanced Simple@L5
Параметр BVOP формата : 1
Параметр QPel формата : Нет
Параметр GMC формата : Без точки перехода
Параметр матрицы формата : Default (H.263)
Идентификатор кодека : XVID
Идентификатор кодека/Подсказка : XviD
Продолжительность : 44 м.
Битрейт : 1708 Кбит/сек
Ширина : 720 пикселей
Высота : 400 пикселей
Соотношение сторон : 16:9
Частота кадров : 25,000 кадров/сек
Цветовое пространство : YUV
Субдискретизация насыщенности : 4:2:0
Битовая глубина : 8 бит
Тип развёртки : Прогрессивная
Метод сжатия : С потерями
Бит/(Пиксели*Кадры) : 0.237
Размер потока : 539 Мбайт (89%)
Библиотека кодирования : XviD 1.2.1 (UTC 2008-12-04)
Аудио
Идентификатор : 1
Формат : MPEG Audio
Версия формата : Version 1
Профиль формата : Layer 3
Режим : Joint stereo
Расширение режима : MS Stereo
Идентификатор кодека : 55
Идентификатор кодека/Подсказка : MP3
Продолжительность : 44 м.
Вид битрейта : Постоянный
Битрейт : 192 Кбит/сек
Каналы : 2 канала
Частота : 48,0 КГц
Метод сжатия : С потерями
Размер потока : 60,6 Мбайт (10%)
Выравнивание : Соединение по промежуткам
Продолжительность промежутка : 40 мс. (1,00 видеокадр)
Время предзагрузки промежутка : 504 мс.
Библиотека кодирования : LAME3.98r
Настройки программы : -m j -V 4 -q 2 -lowpass 18.6 -b 192

Скриншоты

Внимание! Раздача ведётся путём добавления новых серий. Описание обновления торрента:

Внимание! Раздача ведётся путём добавления новых серий; при каждом добавлении создётся новый торрент. Чтобы начать докачку новой серии, пользователям необходимо сделать следующее:
(1) остановить скачивание,
(2) удалить старый торрент у себя из клиента (старые серии удалять не надо),
(3) скачать новый торрент и запустить его у себя в клиенте вместо старого, при этом указать клиенту путь в старую папку куда и должно происходить скачивание новых серий.
Ваш клиент при этом должен произвести хеширование (проверку) старой папки (если не производит сам - помогите ему сделать это), и будет докачивать только те серии которых у вас ещё нет. Старые серии при этом не удаляются, а продолжают раздаваться!
Eсли вы уже удалили старые серии, то предотвратить повторную закачку старых серий можно, отжав галочку в соответсвующих местах при запуске нового торрента. По возможности, желательно не удалять старые серии как можно дольше чтобы релизёр не столько продолжал раздавать старые серии, а смог сконцентрироваться на новых
[teatrix.ru].t16976.torrent 
Торрент: Зарегистрирован [ 2016-03-17 00:31 ] · 92398ACCC1268306FABB93C30F766EA7704C82D9

Скачать .torrent

Скачать

13 KB

Статус: проверено
Скачан: 0 раз
Размер: 2.36 GB
terms.php



Показать сообщения:    

Текущее время: 20-Янв 16:58

Часовой пояс: UTC + 3


Вы не можете начинать темы
Вы не можете отвечать на сообщения
Вы не можете редактировать свои сообщения
Вы не можете удалять свои сообщения
Вы не можете голосовать в опросах
Вы не можете прикреплять файлы к сообщениям
Вы можете скачивать файлы