Пекин, полный творческих замыслов / 北京,充滿創意的想法 [2007, Документальный, арт, дизайн, живопись, графика, скульптура, искусство, SATRip] CCTV


Статистика раздачи [Обновить пиров]
Размер:  301 MB   |    Зарегистрирован:  10 месяцев 3 дня   |    Скачан:  0 раз

Полного источника не было: Никогда

Личеров:  3  [  0 KB/s  ]   Подробная статистика пиров
 
   
 
 
 

[Цитировать]

Пекин, полный творческих замыслов / 北京,充滿創意的想法 Год выпуска: 2007
Страна: Китай
Жанр: Документальный, арт, дизайн, живопись, графика, скульптура, искусство
Продолжительность: 00:25:18
Перевод: Одноголосый закадровый
Русские субтитры: есть (Хардсаб - на непереведенные места)
Производство: CCTV (China Central Television), CNTV
Описание: Речь идет о квартале 798. Он расположен в северо-восточной части Пекина, в районе Дашаньцзы. Свое название он получил в наследство от заброшенной фабрики, на территории которой находится. Квартал 798 постепенно становится все более важным и для самих китайских художников и дизайнеров. Ежегодно здесь проводится арт-фестиваль, демонстрирующий последние достижения Китая в области дизайна и музыки...

качество: SATRip
формат: AVI
видеокодек: XviD
аудиокодек: MP3
Видео: MPEG-4 Visual, XviD, 704 х 416 (1.692), 25.000 fps, 1 525 Kbps, 0.208 бит/пиксель
Аудио: MP3, 48.0 KHz, 128 Kbps, 2 channels
Релиз-группа OLARRI & qsdyg

MediaInfo

General
Complete name : E:\Пекин.полный.творческих.замыслов..avi
Format : AVI
Format/Info : Audio Video Interleave
File size : 301 MiB
Duration : 25mn 18s
Overall bit rate : 1 663 Kbps
Writing application : VirtualDubMod 1.5.10.3 | www.virtualdub-fr.org || (build 2550/release)
Writing library : VirtualDubMod build 2550/release
Video
ID : 0
Format : MPEG-4 Visual
Format profile : Advanced Simple@L5
Format settings, BVOP : 2
Format settings, QPel : No
Format settings, GMC : No warppoints
Format settings, Matrix : Custom
Muxing mode : Packed bitstream
Codec ID : XVID
Codec ID/Hint : XviD
Duration : 25mn 18s
Bit rate : 1 525 Kbps
Width : 704 pixels
Height : 416 pixels
Display aspect ratio : 1.692
Frame rate : 25.000 fps
Color space : YUV
Chroma subsampling : 4:2:0
Bit depth : 8 bits
Scan type : Progressive
Compression mode : Lossy
Bits/(Pixel*Frame) : 0.208
Stream size : 276 MiB (92%)
Writing library : XviD 65
Audio
ID : 1
Format : MPEG Audio
Format version : Version 1
Format profile : Layer 3
Codec ID : 55
Codec ID/Hint : MP3
Duration : 25mn 18s
Bit rate mode : Constant
Bit rate : 128 Kbps
Channel(s) : 2 channels
Sampling rate : 48.0 KHz
Compression mode : Lossy
Stream size : 23.2 MiB (8%)
Alignment : Aligned on interleaves
Interleave, duration : 40 ms (1.00 video frame)
Interleave, preload duration : 504 ms
Writing library : LAME3.99r
Encoding settings : -m s -V 4 -q 2 -lowpass 17 -b 128

Скриншоты

[teatrix.ru].t16981.torrent 
Торрент: Зарегистрирован [ 2016-03-17 00:31 ] · C2871E37966BAF7A519C19491A1C8D8EE88F51AB

Скачать .torrent

Скачать

12 KB

Статус: проверено
Скачан: 0 раз
Размер: 301 MB
terms.php



Быстрый ответ

Имя:

      
Для отправки сообщений необходимо включить JavaScript
Показать сообщения:    

Текущее время: 20-Янв 17:00

Часовой пояс: UTC + 3


Вы можете начинать темы
Вы можете отвечать на сообщения
Вы не можете редактировать свои сообщения
Вы не можете удалять свои сообщения
Вы не можете голосовать в опросах
Вы не можете прикреплять файлы к сообщениям
Вы можете скачивать файлы