Тайны советского кино. Приключения Шерлока Холмса и доктора Ватсона (Максим Володин) [2012, документальный, SATRip]


Статистика раздачи [Обновить пиров]
Размер:  324 MB   |    Зарегистрирован:  8 месяцев 23 дня   |    Скачан:  0 раз

Полного источника не было: Никогда

Личеров:  3  [  0 KB/s  ]   Подробная статистика пиров
 
   
 
 
 

[Цитировать]

Тайны советского кино. Приключения Шерлока Холмса и доктора Ватсона- Год выпуска: 2012
Страна: Россия
Жанр: документальный
Продолжительность: 00:26:00
Перевод: Не требуется
Русские субтитры: нет-Режиссер: Максим Володин-Ведущий: Иван Усачёв-Участники:
Василий Ливанов, Игорь Масленников, Светлана Крючкова, Борис Клюев, Виктор Евграфов, Анатолий Лапшов, Владимир Дашкевич и многие другие.
Описание:
О самом знаменитом советском сериале "Приключения Шерлока Холмса и доктора Ватсона" сняты десятки документальных фильмов и записаны сотни интервью с его героями и создателями. Однако спустя десятилетия открываются тайны, которые и не снились сыщику всех времён и народов!
Например, мало кто знает, что Василий Ливанов часто срывал съёмочный процесс. На какие крайние меры пришлось однажды пойти одному из операторов ради спасения картины? Почему главный злодей фильма, соперник детектива профессор Мориарти, был не прочь на самом деле отправить Холмса в бездну Рейхенбахского водопада? Виктор Евграфов впервые расскажет, какая кошка пробежала между ним и Василием Ливановым. Также вы узнаете, как Светлана Крючкова на ходу выдумывала свою роль, где на самом деле снимали Лондон, и чего стоило композитору Владимиру Дашкевичу написать одну из самых узнаваемых мелодий отечественного кинематографа.-качество: SATRip
формат: AVI
видеокодек: DivX
аудиокодек: MP3
Видео: 704x400 (16/9), 25 fps, 1599 kbps, 0.227 bit/pixel
Аудио: 48 kHz, MPEG Layer 3, 2 ch, 128.00 kbps

MediaInfo

Общее
Полное имя : H:\Downloads\Sherlok.Holms.Dr.Vatson.avi
Формат : AVI
Формат/Информация : Audio Video Interleave
Размер файла : 324 Мбайт
Продолжительность : 26 м.
Общий поток : 1745 Кбит/сек
Видео
Идентификатор : 0
Формат : MPEG-4 Visual
Профиль формата : Simple@L3
Параметр BVOP формата : Нет
Параметр QPel формата : Нет
Параметр GMC формата : Без точки перехода
Параметр матрицы формата : Default (H.263)
Идентификатор кодека : DX50
Идентификатор кодека/Подсказка : DivX 5
Продолжительность : 26 м.
Битрейт : 1599 Кбит/сек
Ширина : 704 пикселя
Высота : 400 пикселей
Соотношение сторон : 16:9
Частота кадров : 25,000 кадров/сек
Цветовое пространство : YUV
Субдискретизация насыщенности : 4:2:0
Битовая глубина : 8 бит
Тип развёртки : Прогрессивная
Метод сжатия : С потерями
Бит/(Пиксели*Кадры) : 0.227
Размер потока : 297 Мбайт (92%)
Библиотека кодирования : XviD 1.2.1 (UTC 2008-12-04)
Аудио
Идентификатор : 1
Формат : MPEG Audio
Версия формата : Version 1
Профиль формата : Layer 3
Режим : Joint stereo
Расширение режима : MS Stereo
Идентификатор кодека : 55
Идентификатор кодека/Подсказка : MP3
Продолжительность : 25 м.
Вид битрейта : Постоянный
Битрейт : 128 Кбит/сек
Каналы : 2 канала
Частота : 48,0 КГц
Метод сжатия : С потерями
Размер потока : 23,8 Мбайт (7%)
Выравнивание : Соединение по промежуткам
Продолжительность промежутка : 24 мс. (0,60 видеокадр)
Библиотека кодирования : LAME3.98.2

Скриншоты

Тайны советского кино
[teatrix.ru].t16983.torrent 
Торрент: Зарегистрирован [ 2016-03-17 00:33 ] · F231A08D1E7393B2461DD6BF8384D9AC4FD3B4F7

Скачать .torrent

Скачать

13 KB

Статус: проверено
Скачан: 0 раз
Размер: 324 MB
terms.php



Показать сообщения:    

Текущее время: 09-Дек 18:31

Часовой пояс: UTC + 3


Вы не можете начинать темы
Вы не можете отвечать на сообщения
Вы не можете редактировать свои сообщения
Вы не можете удалять свои сообщения
Вы не можете голосовать в опросах
Вы не можете прикреплять файлы к сообщениям
Вы можете скачивать файлы