Тайны советского кино. Покровские ворота (Максим Володин) [2012, Документальный цикл, познавательный, DVB]


Статистика раздачи [Обновить пиров]
Размер:  690 MB   |    Зарегистрирован:  8 месяцев 25 дней   |    Скачан:  0 раз

Полного источника не было: Никогда

Личеров:  3  [  0 KB/s  ]   Подробная статистика пиров
 
   
 
 
 

[Цитировать]

Тайны советского кино. Покровские ворота
Год выпуска: 2012
Страна: Россия
Жанр: Документальный цикл, познавательный
Продолжительность: 00:25:52
Режиссер: Максим Володин
Описание: У фильма "Покровские ворота" была по-настоящему сложная судьба. Картину долго не разрешали снимать, потом она год пролежала на полке. Только случай помог выпустить фильм в прокат. Критики говорили, что такие фильмы снимают те, кто собирается навсегда уехать из страны. На тот момент режиссер Михаил Козаков даже не думал об эмиграции, но спустя почти десять лет слова критиков оказались пророческими...
Участники: Леонид Зорин, Наталья Крачковская, Николай Немоляев, Марина Дюжева, Александр Пятков
качество: DVB
формат: MPG
видеокодек: MPEG2
аудиокодек: MP2
Видео: MPEG-2 Video, 720x576 (4:3), 25 fps, 3 460 Kbps
Аудио: Russian: 48 kHz, MPEG Audio, 2 ch, 192 kbps

MediaInfo

Общее
Полное имя : E:\MPEG\Тайны советского кино. Покровские ворота. 2012.DVB.Doc66.mpg
Формат : MPEG-PS
Размер файла : 690 Мбайт
Продолжительность : 25 м.
Режим общего битрейта : Переменный
Общий поток : 3729 Кбит/сек
Видео
Идентификатор : 224 (0xE0)
Формат : MPEG Video
Версия формата : Version 2
Профиль формата : Main@Main
Параметр BVOP формата : Да
Параметр матрицы формата : Выборочная
Продолжительность : 25 м.
Вид битрейта : Переменный
Битрейт : 3463 Кбит/сек
Максимальный битрейт : 15,0 Мбит/сек
Ширина : 720 пикселей
Высота : 576 пикселей
Соотношение сторон : 4:3
Частота кадров : 25,000 кадров/сек
Стандарт вещания : PAL
Цветовое пространство : YUV
Субдискретизация насыщенности : 4:2:0
Битовая глубина : 8 бит
Метод сжатия : С потерями
Бит/(Пиксели*Кадры) : 0.334
Размер потока : 641 Мбайт (93%)
Аудио
Идентификатор : 192 (0xC0)
Формат : MPEG Audio
Версия формата : Version 1
Профиль формата : Layer 2
Продолжительность : 25 м.
Вид битрейта : Постоянный
Битрейт : 192 Кбит/сек
Каналы : 2 канала
Частота : 48,0 КГц
Метод сжатия : С потерями
Размер потока : 35,5 Мбайт (5%)

Скриншоты

Тайны советского кино
[teatrix.ru].t16984.torrent 
Торрент: Зарегистрирован [ 2016-03-17 00:32 ] · 710877150118B9A1D61150EDBFD30610CAF76AFB

Скачать .torrent

Скачать

7 KB

Статус: проверено
Скачан: 0 раз
Размер: 690 MB
terms.php



Показать сообщения:    

Текущее время: 11-Дек 03:22

Часовой пояс: UTC + 3


Вы не можете начинать темы
Вы не можете отвечать на сообщения
Вы не можете редактировать свои сообщения
Вы не можете удалять свои сообщения
Вы не можете голосовать в опросах
Вы не можете прикреплять файлы к сообщениям
Вы можете скачивать файлы