Судьба Марии Кюри / Dans les pas de Marie Curie / Sladami Marii Sklodowskiej-Curie (Кшиштоф Рогульский / Krzysztof Rogulski) [2011, документально–игровой, биография, DVB] Original (Fre) + Sub (Rus, Eng, Fre, Deu)


Статистика раздачи [Обновить пиров]
Размер:  1.67 GB   |    Зарегистрирован:  8 месяцев 21 день   |    Скачан:  0 раз

Полного источника не было: Никогда

Личеров:  3  [  0 KB/s  ]   Подробная статистика пиров
 
   
 
 
 

[Цитировать]

Судьба Марии Кюри
Dans les pas de Marie Curie- Год выпуска: 2011
Страна: Франция, Польша
Жанр: документально-игровой, биография
Продолжительность: 01:19:13
Перевод: Субтитры (русский перевод М.Кузиной, Éclair Group)
Русские субтитры: естьФормат субтитров: prerendered (IDX+SUB)
Доп. информация о субтитрах: русские, английские, французские, немецкие, нидерландские
Оригинальная аудиодорожка: французский
Режиссер: Кшиштоф Рогульский / Krzysztof Rogulski
Телеканал: TV5MONDE Europe
В ролях: Элизабет Дуда / Elisabeth Duda (Marie Curie), Эрик Дешор / Erick Deshors (Pierre Curie), Ежи Рогульский / Jerzy Rogulski (Wladyslaw Sklodowska), Жак Боннаффе / Jacques Bonnaffé (Narrator, voice), Жюльетт Греко / Juliette Gréco (Herself)
Описание: 3 декабря 2012 года Консульство вместе с Санкт – Петербургским Академическим университетом Российской Академии Наук организовало популярно-научный семинар, посвященный деятельности Марии Склодовской-Кюри, в рамках которого был прочитан доклад проф. Ю.Трушина под названием "Мария Склодовская-Кюри. Радиоактивность", доклад проф. Е.Шешукова под названием "Связь Марии Склодовской-Кюри с радиологами России", а также показ фильма "По следам Марии Склодовской-Кюри" с участием его создателя, режиссера Кшиштофа Рогульского. Хозяином и ведущим мероприятия был Жорес Алфёров – физик и нобелевский лауреат, выдающаяся фигура российской науки. Также в Академическом университете была представлена выставка о жизни нашей нобелевской лауреатки, которую подготовили Музей Марии Склодовской-Кюри в Варшаве и Польское химическое общество.
Это событие позволило приблизить личность и свершения нашей землячки не только в аспекте ее научных достижений, но также в контексте роли, которую она сыграла в истории для равноправия женщин. В семинаре также приняла участие Генеральный консул Франции Элизабет Барсак. 4 декабря режиссер фильма отправился на презентацию своего произведения в Новгород в Государственный университет им. Ярослава Мудрого. Многочисленные преподаватели и студенты с интересом посмотрели фильм, а затем активно участвовали в дискуссии, касающейся польской лауреатки нобелевской премии, а также закулисья появления фильма. (Генеральное Консульство Республики Польша в Санкт-Петербурге)
Доп. информация: Hot Bird (13.0°E) DVB-S. Во время нефранцузской речи на экране дополнительно вшитые французские субтитры.

качество: DVB
формат: MKV
Видео: MPEG Video 2, 720x576@1024x576 (16:9), 25 fps, ~2764 kbps avg, 0.267 bit/pixel
Аудио: MPEG Audio 2, 2 ch, 48 kHz, 192.00 kbps - французский

MediaInfo

Общее
Уникальный идентификатор : 235902069551750444578168173668965362192 (0xB179160214E7DF16A051AA31EA892A10)
Полное имя : F:\My Torrents 3\[apreder]Dans_les_pas_de_Marie_Curie(2011)DVB.mkv
Формат : Matroska
Версия формата : Version 2
Размер файла : 1,67 Гбайт
Продолжительность : 1 ч. 19 м.
Режим общего битрейта : Переменный
Общий поток : 3016 Кбит/сек
Дата кодирования : UTC 2015-09-25 15:32:59
Программа кодирования : mkvmerge v8.4.0 ('A better way to fly') 64bit
Библиотека кодирования : libebml v1.3.1 + libmatroska v1.4.2
Attachements : cover.jpg / cover_small.jpg
TITLE : Dans les pas de Marie Curie
IMDB : tt3826264
DATE_RELEASED : 2011-12-14
LAW_RATING : 12+
GENRE : Documentary, Biography
ACTOR : Elisabeth Duda, Erick Deshors
DIRECTOR : Krzysztof Rogulski
KEYWORDS : rutracker.org
Видео
Идентификатор : 1
Формат : MPEG Video
Версия формата : Version 2
Профиль формата : Main@Main
Параметр BVOP формата : Да
Параметр матрицы формата : Выборочная
Параметр GOP формата : M=4, N=12
Format_Settings_PictureStructure : Frame
Идентификатор кодека : V_MPEG2
Идентификатор кодека/Информация : MPEG 1 or 2 Video
Продолжительность : 1 ч. 19 м.
Вид битрейта : Переменный
Битрейт : 2764 Кбит/сек
Ширина : 720 пикселей
Высота : 576 пикселей
Соотношение сторон : 16:9
Режим частоты кадров : Постоянный
Частота кадров : 25,000 кадров/сек
Стандарт вещания : PAL
Цветовое пространство : YUV
Субдискретизация насыщенности : 4:2:0
Битовая глубина : 8 бит
Тип развёртки : Чересстрочная
Порядок развёртки : Верхнее поле первое
Метод сжатия : С потерями
Бит/(Пиксели*Кадры) : 0.267
Временной код первого кадра : 00:00:00:00
Оригинал временного кода : Group of pictures header
Размер потока : 1,53 Гбайт (92%)
Default : Да
Forced : Нет
Аудио
Идентификатор : 2
Формат : MPEG Audio
Версия формата : Version 1
Профиль формата : Layer 2
Режим : Joint stereo
Расширение режима : Intensity Stereo + MS Stereo
Идентификатор кодека : A_MPEG/L2
Идентификатор кодека/Подсказка : MP2
Продолжительность : 1 ч. 19 м.
Вид битрейта : Постоянный
Битрейт : 192 Кбит/сек
Каналы : 2 канала
Частота : 48,0 КГц
Метод сжатия : С потерями
Размер потока : 109 Мбайт (6%)
Язык : French
Default : Да
Forced : Нет
Текст #1
Идентификатор : 3
Формат : VobSub
Идентификатор кодека : S_VOBSUB
Идентификатор кодека/Информация : Picture based subtitle format used on DVDs
Язык : Russian
Default : Да
Forced : Нет
Текст #2
Идентификатор : 4
Формат : VobSub
Идентификатор кодека : S_VOBSUB
Идентификатор кодека/Информация : Picture based subtitle format used on DVDs
Язык : English
Default : Нет
Forced : Нет
Текст #3
Идентификатор : 5
Формат : VobSub
Идентификатор кодека : S_VOBSUB
Идентификатор кодека/Информация : Picture based subtitle format used on DVDs
Язык : French
Default : Нет
Forced : Нет
Текст #4
Идентификатор : 6
Формат : VobSub
Идентификатор кодека : S_VOBSUB
Идентификатор кодека/Информация : Picture based subtitle format used on DVDs
Язык : German
Default : Нет
Forced : Нет
Текст #5
Идентификатор : 7
Формат : VobSub
Идентификатор кодека : S_VOBSUB
Идентификатор кодека/Информация : Picture based subtitle format used on DVDs
Язык : Dutch
Default : Нет
Forced : Нет

Скриншоты


Резервные скриншоты


- [663]
[teatrix.ru].t16985.torrent 
Торрент: Зарегистрирован [ 2016-03-17 00:32 ] · DDCB1C5F334E6A58C947F67F3E8A28B1451880C9

Скачать .torrent

Скачать

17 KB

Статус: проверено
Скачан: 0 раз
Размер: 1.67 GB
terms.php



Быстрый ответ

Имя:

      
Для отправки сообщений необходимо включить JavaScript
Показать сообщения:    

Текущее время: 07-Дек 23:14

Часовой пояс: UTC + 3


Вы можете начинать темы
Вы можете отвечать на сообщения
Вы не можете редактировать свои сообщения
Вы не можете удалять свои сообщения
Вы не можете голосовать в опросах
Вы не можете прикреплять файлы к сообщениям
Вы можете скачивать файлы