Тайны советского кино. Сердца трёх (Максим Володин) [2013, документальный, SATRip]


Статистика раздачи [Обновить пиров]
Размер:  319 MB   |    Зарегистрирован:  8 месяцев 19 дней   |    Скачан:  0 раз

Полного источника не было: Никогда

Личеров:  3  [  0 KB/s  ]   Подробная статистика пиров
 
   
 
 
 

[Цитировать]

Тайны советского кино. Сердца трёх- Год выпуска: 2013
Страна: Россия
Жанр: документальный
Продолжительность: 00:25:42
Перевод: Не требуется
Русские субтитры: нет-Режиссер: Максим Володин-Ведущий: Иван Усачёв-Участники:
Сергей Жигунов, Владимир Шевельков, Алена Хмельницкая, Рафаэль Котанджян, Сергей Бржестовский, Ольга Алексеева и другие.
Описание:После сумасшедшего успеха фильма "Гардемарины, вперед!" поклонники Сергея Жигунова, Владимира Шевелькова и Дмитрия Харатьяна только и мечтали о том, чтобы снова увидеть любимцев втроем на экране. И это случилось в 1992 году, когда вышла картина "Сердца трех". Как Жигунов занял место Меньшикова, что делали киношники в Индии, куда исчезла Та, которая грезит, - об этом и многом другом расскажет Иван Усачев в программе "Тайны нашего кино. "Сердца трех".-качество: SATRip
формат: AVI
видеокодек: XviD
аудиокодек: MP3
Видео: 704x416 (1,692), 25 fps, 1599 kbps, 0.218 bit/pixel
Аудио: 48 kHz, MPEG Layer 3, 2 ch, 128.00 kbps

MediaInfo

Общее
Полное имя : H:\Downloads\T.S.K.Serdca.treh.avi
Формат : AVI
Формат/Информация : Audio Video Interleave
Размер файла : 319 Мбайт
Продолжительность : 25 м.
Общий поток : 1737 Кбит/сек
Библиотека кодирования : VirtualDub-MPEG2 build 24600/release
Видео
Идентификатор : 0
Формат : MPEG-4 Visual
Профиль формата : Simple@L3
Параметр BVOP формата : Нет
Параметр QPel формата : Нет
Параметр GMC формата : Без точки перехода
Параметр матрицы формата : Default (H.263)
Идентификатор кодека : DX50
Идентификатор кодека/Подсказка : DivX 5
Продолжительность : 25 м.
Битрейт : 1599 Кбит/сек
Ширина : 704 пикселя
Высота : 416 пикселей
Соотношение сторон : 1,692
Частота кадров : 25,000 кадров/сек
Цветовое пространство : YUV
Субдискретизация насыщенности : 4:2:0
Битовая глубина : 8 бит
Тип развёртки : Прогрессивная
Метод сжатия : С потерями
Бит/(Пиксели*Кадры) : 0.218
Размер потока : 294 Мбайт (92%)
Библиотека кодирования : XviD 1.2.1 (UTC 2008-12-04)
Аудио
Идентификатор : 1
Формат : MPEG Audio
Версия формата : Version 1
Профиль формата : Layer 3
Режим : Joint stereo
Расширение режима : MS Stereo
Идентификатор кодека : 55
Идентификатор кодека/Подсказка : MP3
Продолжительность : 25 м.
Вид битрейта : Постоянный
Битрейт : 128 Кбит/сек
Каналы : 2 канала
Частота : 48,0 КГц
Метод сжатия : С потерями
Размер потока : 23,5 Мбайт (7%)
Выравнивание : Разделение по промежуткам
Продолжительность промежутка : 40 мс. (1,00 видеокадр)
Время предзагрузки промежутка : 500 мс.
Библиотека кодирования : LAME3.98.2

Скриншоты

Тайны советского кино
[teatrix.ru].t16988.torrent 
Торрент: Зарегистрирован [ 2016-03-17 00:32 ] · C10409D9D6178BF97615DED92881D4DBBEEC4AC1

Скачать .torrent

Скачать

13 KB

Статус: проверено
Скачан: 0 раз
Размер: 319 MB
terms.php



Показать сообщения:    

Текущее время: 05-Дек 05:31

Часовой пояс: UTC + 3


Вы не можете начинать темы
Вы не можете отвечать на сообщения
Вы не можете редактировать свои сообщения
Вы не можете удалять свои сообщения
Вы не можете голосовать в опросах
Вы не можете прикреплять файлы к сообщениям
Вы можете скачивать файлы