Аркур. История легенды / Harcourt, histoire d'un mythe (Николя Мопье / Nicolas Maupied) [2011, документальный, познавательный, история фотографии, DVB] Original (Fre) + Sub (ru hard)


Статистика раздачи [Обновить пиров]
Размер:  1.27 GB   |    Зарегистрирован:  8 месяцев 21 день   |    Скачан:  0 раз

Полного источника не было: Никогда

Личеров:  3  [  0 KB/s  ]   Подробная статистика пиров
 
   
 
 
 

[Цитировать]

Аркур. История легенды
Harcourt, histoire d'un mythe- Год выпуска: 2011
Страна: Франция
Жанр: документальный, познавательный, история фотографии
Продолжительность: 00:52:27
Перевод: Субтитры (перевод Éclair Group)
Русские субтитры: есть
Режиссер: Николя Мопье / Nicolas Maupied
Описание: "Во Франции ты не актер, если не сфотографировался в студии Аркур". Таким безапелляционным заявлениям известного французского философа-постструктуралиста Ролана Барта, посвятившего большую часть своей академической жизни изучению отношений между языком и властью, наиболее четко можно определить место легендарной фотостудии в восприятии известных мира сего.
Сегодня на счету студии, впервые включившей прожекторы 15 января 1934 года, портреты более 2000 звезд, блистающих в разных областях, от кино до спорта, и около полумиллиона "обычных людей", способных позволить себе роскошь фотосессии у Аркур.
Эмоциональная Эдит Пиаф и мудрый Сезар, неотразимая Брижит Бардо, ранимый Серж Генсбур и мужественный Жан Габен – все они позировали перед камерами профессионалов Аркур в салоне имени Жана Кокто, освещаемые подсвечниками, попавшими сюда из реквизитов его фильма "Красавица и чудовище", снятого в 1945 году.
Идет время, сменяются поколения, и новые персонажи занимают место в знаменитом кресле Салона: Катрин Денев и Кароль Буке, Моника Белуччи и оскароносная Марион Котийар, Джон Малкович и, уж совсем из другой оперы, Зинедин Зидан. (из статьи Надежды Сикорской "Портрет от Harcourt – не роскошь, а средство увековечиться")
Доп. информация: Собственная запись со спутника (канал TV5MONDE).
Сэмпл: http://multi-up.com/847141
качество: DVB
формат: MPEG-PS (См. при проблемах с просмотром видео)
видеокодек: MPEG2
аудиокодек: MP2
Видео: MPEG Video 2, 720x576@1024x576 (16:9), 25 fps, ~3204 kbps avg, 0.309 bit/pixel
Аудио: Французский (48 kHz, MPEG Audio 2, 2 ch, ~192.00 kbps avg)
Формат субтитров: hardsub (неотключаемые)

MediaInfo

Полное имя                               : H:\My Torrents\[apreder]Harcourt_histoire_d'un_mythe(2011)DVB.mpg
Формат : MPEG-PS
Размер файла : 1,27 Гбайт
Продолжительность : 52 м.
Режим общего битрейта : Переменный
Общий поток : 3464 Кбит/сек
Видео
Идентификатор : 224 (0xE0)
Формат : MPEG Video
Версия формата : Version 2
Профиль формата : Main@Main
Параметр BVOP формата : Да
Параметр матрицы формата : Выборочная
Продолжительность : 52 м.
Вид битрейта : Переменный
Битрейт : 3204 Кбит/сек
Ширина : 720 пикселей
Высота : 576 пикселей
Соотношение сторон : 16:9
Частота кадров : 25,000 кадров/сек
Стандарт вещания : PAL
Цветовое пространство : YUV
Субдискретизация насыщенности : 4:2:0
Битовая глубина : 8 бит
Метод сжатия : С потерями
Бит/(Пиксели*Кадры) : 0.309
Размер потока : 1,17 Гбайт (92%)
Аудио
Идентификатор : 192 (0xC0)
Формат : MPEG Audio
Версия формата : Version 1
Профиль формата : Layer 2
Продолжительность : 52 м.
Вид битрейта : Постоянный
Битрейт : 192 Кбит/сек
Каналы : 2 канала
Частота : 48,0 КГц
Метод сжатия : С потерями
Размер потока : 72,0 Мбайт (6%)

Скриншоты


Скриншоты анаморфированные


-669/651√
[teatrix.ru].t16989.torrent 
Торрент: Зарегистрирован [ 2016-03-17 00:32 ] · 1583B37DBD457E62106BF5060F0F01DD7858909B

Скачать .torrent

Скачать

13 KB

Статус: проверено
Скачан: 0 раз
Размер: 1.27 GB
terms.php



Показать сообщения:    

Текущее время: 07-Дек 13:35

Часовой пояс: UTC + 3


Вы не можете начинать темы
Вы не можете отвечать на сообщения
Вы не можете редактировать свои сообщения
Вы не можете удалять свои сообщения
Вы не можете голосовать в опросах
Вы не можете прикреплять файлы к сообщениям
Вы можете скачивать файлы