Мелодии счастья / Les Melodies du bonheur / Les Mélodies du bonheur (Клод Флеутер / Claude Fleouter / Claude Fléouter) [2012, документальный, познавательный, история мюзикла, DVB] Original (Fre) + Sub (ru hard)


Статистика раздачи [Обновить пиров]
Размер:  1.19 GB   |    Зарегистрирован:  8 месяцев 24 дня   |    Скачан:  0 раз

Полного источника не было: Никогда

Личеров:  3  [  0 KB/s  ]   Подробная статистика пиров
 
   
 
 
 

[Цитировать]

Мелодии счастья
Les Mélodies du bonheur- Год выпуска: 2012
Страна: Франция
Жанр: документальный, познавательный, история мюзикла
Продолжительность: 00:51:50
Перевод: Субтитры (перевод К. Семенюк, Éclair Group)
Русские субтитры: есть
Режиссер: Клод Флеутер / Claude FléouterОписание: В начале XX века оперетта, пришедшая в США из Европы, пользовалась популярностью на Бродвее. Затем ее вытеснил мюзикл. Распространение мюзиклов пришлось на Великую депрессию начала 30-х годов. В 70-х годах оперетта во Франции исчезла окончательно.
Популярность мюзиклов объясняется тем, что они дарят людям радость и вызывают у них приятные воспоминания. Мы расскажем вам об истории французского мюзикла за последние 10 лет. Эти годы стали новым расцветом жанра мюзикла: "Десять заповедей", "Король-Солнце", "Моцарт, рок-опера", "Клеопатра", "Адам и Ева", "Нотр-Дам де Пари", "1789. Любовники Бастилии". (из предисловия к фильму)
Доп. информация: Собственная запись со спутника (канал TV5MONDE). Во время нефранцузской речи на экране дополнительно вшитые французские субтитры.
Сэмпл: http://multi-up.com/847157
качество: DVB
формат: MPEG-PS (См. при проблемах с просмотром видео)
видеокодек: MPEG2
аудиокодек: MP2
Видео: MPEG Video 2, 720x576@1024x576 (16:9), 25 fps, ~3020 kbps avg, 0.291 bit/pixel
Аудио: Французский (48 kHz, MPEG Audio 2, 2 ch, ~192.00 kbps avg)
Формат субтитров: hardsub (неотключаемые)

MediaInfo

Полное имя                               : H:\My Torrents\[apreder]Les_Melodies_du_bonheur(2012)DVB.mpg
Формат : MPEG-PS
Размер файла : 1,19 Гбайт
Продолжительность : 51 м.
Режим общего битрейта : Переменный
Общий поток : 3277 Кбит/сек
Видео
Идентификатор : 224 (0xE0)
Формат : MPEG Video
Версия формата : Version 2
Профиль формата : Main@Main
Параметр BVOP формата : Да
Параметр матрицы формата : Выборочная
Параметр GOP формата : M=3, N=24
Продолжительность : 51 м.
Вид битрейта : Переменный
Битрейт : 3020 Кбит/сек
Ширина : 720 пикселей
Высота : 576 пикселей
Соотношение сторон : 16:9
Частота кадров : 25,000 кадров/сек
Стандарт вещания : PAL
Цветовое пространство : YUV
Субдискретизация насыщенности : 4:2:0
Битовая глубина : 8 бит
Тип развёртки : Прогрессивная
Порядок развёртки : Верхнее поле первое
Метод сжатия : С потерями
Бит/(Пиксели*Кадры) : 0.291
Размер потока : 1,09 Гбайт (92%)
Аудио
Идентификатор : 192 (0xC0)
Формат : MPEG Audio
Версия формата : Version 1
Профиль формата : Layer 2
Продолжительность : 51 м.
Вид битрейта : Постоянный
Битрейт : 192 Кбит/сек
Каналы : 2 канала
Частота : 48,0 КГц
Метод сжатия : С потерями
Размер потока : 71,2 Мбайт (6%)

Скриншоты


Скриншоты анаморфированные


-670/652√
[teatrix.ru].t16990.torrent 
Торрент: Зарегистрирован [ 2016-03-17 00:32 ] · 7A2DDA96DBF5FF50E98245DB2CA46DB73596A8F0

Скачать .torrent

Скачать

12 KB

Статус: проверено
Скачан: 0 раз
Размер: 1.19 GB
terms.php



Быстрый ответ

Имя:

      
Для отправки сообщений необходимо включить JavaScript
Показать сообщения:    

Текущее время: 10-Дек 19:44

Часовой пояс: UTC + 3


Вы можете начинать темы
Вы можете отвечать на сообщения
Вы не можете редактировать свои сообщения
Вы не можете удалять свои сообщения
Вы не можете голосовать в опросах
Вы не можете прикреплять файлы к сообщениям
Вы можете скачивать файлы