Из истории театра и кино. Великие актрисы. Кинодивы 30–50-х годов ХХ века. Грета Гарбо и Бетт Дэвис (Светлана Аронова) [2013, документальная передача, WEBRip]


Статистика раздачи [Обновить пиров]
Размер:  328 MB   |    Зарегистрирован:  10 месяцев 7 дней   |    Скачан:  0 раз

Полного источника не было: Никогда

Личеров:  3  [  0 KB/s  ]   Подробная статистика пиров
 
   
 
 
 

[Цитировать]

Из истории театра и кино. Великие актрисы. Кинодивы 30–50-х годов ХХ века. Грета Гарбо и Бетт Дэвис- Год выпуска: 2013
Страна: Россия, Первый образовательный канал
Жанр: документальная передача
Продолжительность: 00:23:36
Перевод: Не требуется
Русские субтитры: нет-Режиссер: Светлана Аронова-Описание: Авторская программа "ИЗ ИСТОРИИ ТЕАТРА И КИНО. ВЕЛИКИЕ АКТЁРЫ" посвящена истории театра, жизнеописаниям и творчеству известных авторов. О влиянии актёров на развитие театрального искусства. Охватывает исторический период от Древней Греции до наших дней.
Ведущий: Ирина Олеговна Фаниева-Запись: minyaev-Сэмпл: http://multi-up.com/847917
Качество видео: WEBRip
Формат видео: AVI
Видео кодек: XviD
Аудио кодек: MP3
Видео: 720x576 (5:4), 30.000 fps, XviD, 1736 Kbps, 0.140 bit/pixel
Аудио: 44.1 KHz, MP3, 2 ch, 192 kbps

MediaInfo

General
Complete name : D:\Из истории театра и кино. Грета Гарбо и Бетт Дэвис (2013).avi
Format : AVI
Format/Info : Audio Video Interleave
File size : 328 MiB
Duration : 23mn 36s
Overall bit rate : 1 941 Kbps
Writing application : Lavf52.71.0
Video
ID : 0
Format : MPEG-4 Visual
Format profile : Simple@L1
Format settings, BVOP : No
Format settings, QPel : No
Format settings, GMC : No warppoints
Format settings, Matrix : Default (H.263)
Codec ID : XVID
Codec ID/Hint : XviD
Duration : 23mn 35s
Bit rate : 1 736 Kbps
Width : 720 pixels
Height : 576 pixels
Display aspect ratio : 5:4
Frame rate : 30.000 fps
Standard : PAL
Color space : YUV
Chroma subsampling : 4:2:0
Bit depth : 8 bits
Scan type : Progressive
Bits/(Pixel*Frame) : 0.140
Stream size : 293 MiB (89%)
Writing library : Lavc52.78.0
Audio
ID : 1
Format : MPEG Audio
Format version : Version 1
Format profile : Layer 3
Mode : Joint stereo
Mode extension : MS Stereo
Codec ID : 55
Codec ID/Hint : MP3
Duration : 23mn 36s
Bit rate mode : Constant
Bit rate : 192 Kbps
Channel(s) : 2 channels
Sampling rate : 44.1 KHz
Stream size : 32.4 MiB (10%)
Alignment : Aligned on interleaves
Interleave, duration : 26 ms (0.78 video frame)
Writing library : LAME3.97

Скриншоты


[teatrix.ru].t16993.torrent 
Торрент: Зарегистрирован [ 2016-03-17 00:34 ] · 072902E008A6BFADD21838D0CAA0F3760DE24D3E

Скачать .torrent

Скачать

13 KB

Статус: проверено
Скачан: 0 раз
Размер: 328 MB
terms.php



Показать сообщения:    

Текущее время: 24-Янв 12:10

Часовой пояс: UTC + 3


Вы не можете начинать темы
Вы не можете отвечать на сообщения
Вы не можете редактировать свои сообщения
Вы не можете удалять свои сообщения
Вы не можете голосовать в опросах
Вы не можете прикреплять файлы к сообщениям
Вы можете скачивать файлы