(Classical Crossover) Jonathan & Charlotte - Together - 2012, FLAC (tracks+.cue) lossless


 

[Цитировать]

Jonathan & Charlotte / Together
Жанр: Classical Crossover
Год издания диска: 2012
Издатель (лейбл): Syco Music
Страна: Великобритания
Аудиокодек: FLAC
Тип рипа: tracks+.cue
Битрейт аудио: lossless
Продолжительность: 00:36:00
Источник: скачано с
сайт-источник/ник/другое: интернет
Наличие сканов в содержимом раздачи: нет
Треклист:
01 The Prayer feat. Only Boys Aloud
02 Caruso
03 Vero Amore
04 Ave Maria
05 Forse (Unintended)
06 Il Mondo E Nostro (Rule The World)
07 Canto Della Terra
08 Ognuno Soffre (Everybody Hurts)
09 Chi Mai Vivrà Per Sempre (Who Wants To Live Forever)
10 La Prima Volta (The First Time Ever I Saw Your Face)

Лог создания рипа

Exact Audio Copy V1.0 beta 3 from 29. August 2011
EAC extraction logfile from 30. October 2012, 21:26
Jonathan & Charlotte / Together
Used drive : HL-DT-STBD-RE BH10LS30 Adapter: 1 ID: 0
Read mode : Secure
Utilize accurate stream : Yes
Defeat audio cache : Yes
Make use of C2 pointers : No
Read offset correction : 667
Overread into Lead-In and Lead-Out : No
Fill up missing offset samples with silence : Yes
Delete leading and trailing silent blocks : No
Null samples used in CRC calculations : Yes
Used interface : Native Win32 interface for Win NT & 2000
Gap handling : Appended to previous track
Used output format : User Defined Encoder
Selected bitrate : 1024 kBit/s
Quality : High
Add ID3 tag : No
Command line compressor : C:\Program Files (x86)\Exact Audio Copy\Flac\flac.exe
Additional command line options : -8 -V -T "ARTIST=%artist%" -T "TITLE=%title%" -T "ALBUM=%albumtitle%" -T "DATE=%year%" -T "TRACKNUMBER=%tracknr%" -T "GENRE=%genre%" -T "PERFORMER=%albuminterpret%" -T "COMPOSER=%composer%" %haslyrics%--tag-from-file=LYRICS="%lyricsfile%"%haslyrics% -T "ALBUMARTIST=%albumartist%" -T "DISCNUMBER=%cdnumber%" -T "TOTALDISCS=%totalcds%" -T "TOTALTRACKS=%numtracks%" -T "COMMENT=%comment%" %source% -o %dest%
TOC of the extracted CD
Track | Start | Length | Start sector | End sector
---------------------------------------------------------
1 | 0:00.00 | 4:01.46 | 0 | 18120
2 | 4:01.46 | 3:58.71 | 18121 | 36041
3 | 8:00.42 | 3:19.67 | 36042 | 51033
4 | 11:20.34 | 3:17.43 | 51034 | 65851
5 | 14:38.02 | 3:16.38 | 65852 | 80589
6 | 17:54.40 | 3:08.00 | 80590 | 94689
7 | 21:02.40 | 3:44.62 | 94690 | 111551
8 | 24:47.27 | 3:44.67 | 111552 | 128418
9 | 28:32.19 | 3:42.01 | 128419 | 145069
10 | 32:14.20 | 3:45.30 | 145070 | 161974
Track 1
Filename D:\ripped cds\Jonathan & Charlotte - Together (2012) [FLAC]\01 - The Prayer feat. Only Boys Aloud.wav
Pre-gap length 0:00:02.00
Peak level 99.7 %
Extraction speed 1.2 X
Track quality 100.0 %
Test CRC 7C80D239
Copy CRC 7C80D239
Track not present in AccurateRip database
Copy OK
Track 2
Filename D:\ripped cds\Jonathan & Charlotte - Together (2012) [FLAC]\02 - Caruso.wav
Pre-gap length 0:00:02.00
Peak level 99.7 %
Extraction speed 1.4 X
Track quality 100.0 %
Test CRC B1670638
Copy CRC B1670638
Track not present in AccurateRip database
Copy OK
Track 3
Filename D:\ripped cds\Jonathan & Charlotte - Together (2012) [FLAC]\03 - Vero Amore (Your Song).wav
Pre-gap length 0:00:01.70
Peak level 99.6 %
Extraction speed 1.4 X
Track quality 100.0 %
Test CRC 33419260
Copy CRC 33419260
Track not present in AccurateRip database
Copy OK
Track 4
Filename D:\ripped cds\Jonathan & Charlotte - Together (2012) [FLAC]\04 - Ave Maria.wav
Pre-gap length 0:00:01.61
Peak level 99.6 %
Extraction speed 1.5 X
Track quality 100.0 %
Test CRC D1AA5164
Copy CRC D1AA5164
Track not present in AccurateRip database
Copy OK
Track 5
Filename D:\ripped cds\Jonathan & Charlotte - Together (2012) [FLAC]\05 - Forse (Unintended).wav
Pre-gap length 0:00:01.84
Peak level 99.6 %
Extraction speed 1.4 X
Track quality 99.9 %
Test CRC 1D2A3930
Copy CRC 1D2A3930
Track not present in AccurateRip database
Copy OK
Track 6
Filename D:\ripped cds\Jonathan & Charlotte - Together (2012) [FLAC]\06 - Il Mondo È Nostro (Rule The World).wav
Pre-gap length 0:00:01.20
Peak level 99.8 %
Extraction speed 1.7 X
Track quality 100.0 %
Test CRC 68E5DD5B
Copy CRC 68E5DD5B
Track not present in AccurateRip database
Copy OK
Track 7
Filename D:\ripped cds\Jonathan & Charlotte - Together (2012) [FLAC]\07 - Canto Della Terra.wav
Pre-gap length 0:00:02.00
Peak level 99.6 %
Extraction speed 1.8 X
Track quality 100.0 %
Test CRC 97598C9D
Copy CRC 97598C9D
Track not present in AccurateRip database
Copy OK
Track 8
Filename D:\ripped cds\Jonathan & Charlotte - Together (2012) [FLAC]\08 - Ognuno Soffre (Everybody Hurts).wav
Pre-gap length 0:00:02.21
Peak level 99.7 %
Extraction speed 1.9 X
Track quality 100.0 %
Test CRC 1A1B771D
Copy CRC 1A1B771D
Track not present in AccurateRip database
Copy OK
Track 9
Filename D:\ripped cds\Jonathan & Charlotte - Together (2012) [FLAC]\09 - Chi Mai Vivrà Per Sempre (Who Wants To Live Forever).wav
Pre-gap length 0:00:01.33
Peak level 99.6 %
Extraction speed 2.0 X
Track quality 100.0 %
Test CRC 72806F6A
Copy CRC 72806F6A
Track not present in AccurateRip database
Copy OK
Track 10
Filename D:\ripped cds\Jonathan & Charlotte - Together (2012) [FLAC]\10 - La Prima Volta (The First Time Ever I Saw Your Face).wav
Pre-gap length 0:00:01.80
Peak level 100.0 %
Extraction speed 2.1 X
Track quality 100.0 %
Test CRC BDB75386
Copy CRC BDB75386
Track not present in AccurateRip database
Copy OK
None of the tracks are present in the AccurateRip database
No errors occurred
End of status report
---- CUETools DB Plugin V2.1.3
[CTDB TOCID: 2avDBMk16_fS_YaoT8DzqrFr4tQ-] found, Submit result: 2avDBMk16_fS_YaoT8DzqrFr4tQ- has been confirmed
[1ebe3025] (6/6) Accurately ripped
==== Log checksum 173282E93D28BBEF91BF87431455A2E18FF9D61A841FC438D912D27217350B53 ====

Лог проверки качества

AUDIOCHECKER v2.0 beta (build 457) - by Dester - opdester@freemail.hu
~~~~~~~~~~~~~~~~~~~~~~~~~~~~~~~~~~
Started at: п'ятниця, 29. 03. 2013. - 8:57.32
10 files found
01 -===- F:\Music 2\Temp\01 - The Prayer feat. Only Boys Aloud.wav
Conclusion: this track is CDDA with probability 100%
02 -===- F:\Music 2\Temp\02 - Caruso.wav
Conclusion: this track is CDDA with probability 99%
03 -===- F:\Music 2\Temp\03 - Vero Amore (Your Song).wav
Conclusion: this track is CDDA with probability 100%
04 -===- F:\Music 2\Temp\04 - Ave Maria.wav
Conclusion: this track is CDDA with probability 100%
05 -===- F:\Music 2\Temp\05 - Forse (Unintended).wav
Conclusion: this track is CDDA with probability 100%
06 -===- F:\Music 2\Temp\06 - Il Mondo E Nostro (Rule The World).wav
Error while extracting! Check your rights, free some space if needed and ensure the file is valid.
07 -===- F:\Music 2\Temp\07 - Canto Della Terra.wav
Conclusion: this track is CDDA with probability 99%
08 -===- F:\Music 2\Temp\08 - Ognuno Soffre (Everybody Hurts).wav
Conclusion: this track is CDDA with probability 100%
09 -===- F:\Music 2\Temp\09 - Chi Mai Vivra Per Sempre (Who Wants To Live Forever).wav
Error while extracting! Check your rights, free some space if needed and ensure the file is valid.
10 -===- F:\Music 2\Temp\10 - La Prima Volta (The First Time Ever I Saw Your Face).wav
Conclusion: this track is CDDA with probability 100%
Finished at: п'ятниця, 29. 03. 2013. - 9:05.59 (operation time: 0:08.26)
Доп. информация: Рип проходит проверку базы Accurate Rip

Отчёт CUE Tools

[Verification date: 28.03.2013 22:43:13]
[Disc ID: 000da1a1-006c68eb-8a086f0a]
Track [ CRC ] Status
01 [de3d4ca2] (01/01) Accurately ripped as in pressing(s) #1
02 [d47da590] (01/01) Accurately ripped as in pressing(s) #1
03 [471ca04a] (01/01) Accurately ripped as in pressing(s) #1
04 [2bb43a6a] (01/01) Accurately ripped as in pressing(s) #1
05 [826fac2b] (01/01) Accurately ripped as in pressing(s) #1
06 [48382c77] (01/01) Accurately ripped as in pressing(s) #1
07 [8d8090d1] (01/01) Accurately ripped as in pressing(s) #1
08 [7772c6e0] (01/01) Accurately ripped as in pressing(s) #1
09 [89c9324b] (01/01) Accurately ripped as in pressing(s) #1
10 [b99aa04d] (01/01) Accurately ripped as in pressing(s) #1
Track [ CRC32 ] [W/O NULL] [ LOG ]
-- [285341FF] [01A6D104]
01 [7C80D239] [67A719F5] CRC32
02 [B1670638] [104481CB] CRC32
03 [33419260] [06439C25] CRC32
04 [D1AA5164] [D87A64EC] CRC32
05 [1D2A3930] [2BC03618] CRC32
06 [68E5DD5B] [77EA0FA3] CRC32
07 [97598C9D] [D27D0765] CRC32
08 [1A1B771D] [60C6D26E] CRC32
09 [72806F6A] [E053BA71] CRC32
10 [BDB75386] [172B6627] CRC32

Содержание индексной карты (.CUE)

REM GENRE Pop
REM DATE 2012
REM DISCID 8A086F0A
REM COMMENT "ExactAudioCopy v1.0b3"
CATALOG 0887254436324
PERFORMER "Jonathan & Charlotte"
TITLE "Together"
FILE "01 - The Prayer feat. Only Boys Aloud.wav" WAVE
TRACK 01 AUDIO
TITLE "The Prayer feat. Only Boys Aloud"
PERFORMER "Jonathan & Charlotte"
ISRC GBHMU1200244
INDEX 01 00:00:00
TRACK 02 AUDIO
TITLE "Caruso"
PERFORMER "Jonathan & Charlotte"
ISRC GBHMU1200245
INDEX 00 03:59:46
FILE "02 - Caruso.wav" WAVE
INDEX 01 00:00:00
TRACK 03 AUDIO
TITLE "Vero Amore (Your Song)"
PERFORMER "Jonathan & Charlotte"
ISRC GBHMU1200246
INDEX 00 03:57:18
FILE "03 - Vero Amore (Your Song).wav" WAVE
INDEX 01 00:00:00
TRACK 04 AUDIO
TITLE "Ave Maria"
PERFORMER "Jonathan & Charlotte"
ISRC GBHMU1200247
INDEX 00 03:18:21
FILE "04 - Ave Maria.wav" WAVE
INDEX 01 00:00:00
TRACK 05 AUDIO
TITLE "Forse (Unintended)"
PERFORMER "Jonathan & Charlotte"
ISRC GBHMU1200248
INDEX 00 03:15:55
FILE "05 - Forse (Unintended).wav" WAVE
INDEX 01 00:00:00
TRACK 06 AUDIO
TITLE "Il Mondo И Nostro (Rule The World)"
PERFORMER "Jonathan & Charlotte"
ISRC GBHMU1200249
INDEX 00 03:15:23
FILE "06 - Il Mondo И Nostro (Rule The World).wav" WAVE
INDEX 01 00:00:00
TRACK 07 AUDIO
TITLE "Canto Della Terra"
PERFORMER "Jonathan & Charlotte"
ISRC GBHMU1200250
INDEX 00 03:06:00
FILE "07 - Canto Della Terra.wav" WAVE
INDEX 01 00:00:00
TRACK 08 AUDIO
TITLE "Ognuno Soffre (Everybody Hurts)"
PERFORMER "Jonathan & Charlotte"
ISRC GBHMU1200251
INDEX 00 03:42:46
FILE "08 - Ognuno Soffre (Everybody Hurts).wav" WAVE
INDEX 01 00:00:00
TRACK 09 AUDIO
TITLE "Chi Mai Vivrа Per Sempre (Who Wants To Live Forever)"
PERFORMER "Jonathan & Charlotte"
ISRC GBHMU1200253
INDEX 00 03:43:42
FILE "09 - Chi Mai Vivrа Per Sempre (Who Wants To Live Forever).wav" WAVE
INDEX 01 00:00:00
TRACK 10 AUDIO
TITLE "La Prima Volta (The First Time Ever I Saw Your Face)"
PERFORMER "Jonathan & Charlotte"
ISRC GBHMU1200252
INDEX 00 03:40:16
FILE "10 - La Prima Volta (The First Time Ever I Saw Your Face).wav" WAVE
INDEX 01 00:00:00

Об исполнителе (группе)

Джонатан Энтони (англ. Jonathan Antoine; род. 13 января 1995 года, Эссекс, Великобритания) и Шарлотта Джаконелли (англ. Charlotte Jaconelli; род. 24 августа 1995 года, Эссекс, Великобритания) — известны как Джонатан и Шарлотта, английский дуэт классического кроссовера из Эссекса. Они заняли второе место в шестом сезоне шоу Britain's Got Talent 12 мая 2012 года. Несмотря на то что они не одержали победы, Саймон Коуэлл и его лейбл Syco Music предложил молодому дуэту контракт на сумму 1 млн фунтов стерлингов. Они выпустили свой альбом Together, который достиг в британских чартах альбомов 5-го места. Альбом был выпущен в США и Канаде 30 октября 2012 года.
Материал из Википедии — свободной энциклопедии



Показать сообщения:    

Текущее время: 09-Дек 18:32

Часовой пояс: UTC + 3


Вы не можете начинать темы
Вы не можете отвечать на сообщения
Вы не можете редактировать свои сообщения
Вы не можете удалять свои сообщения
Вы не можете голосовать в опросах
Вы не можете прикреплять файлы к сообщениям
Вы не можете скачивать файлы