Исчезающее изображение / The Fading Image (Giorgio Moroder) [1984, Документальный, VHSRip]


Статистика раздачи [Обновить пиров]
Размер:  183 MB   |    Зарегистрирован:  8 месяцев 21 день   |    Скачан:  0 раз

Полного источника не было: Никогда

Личеров:  3  [  0 KB/s  ]   Подробная статистика пиров
 
   
 
 
 

[Цитировать]

Исчезающее изображение / The Fading Image
Год выпуска: 1984
Страна: США
Жанр: Документальный
Продолжительность: 00:17:57
Перевод: Любительский (одноголосый закадровый)
Режиссер: Giorgio Moroder
Перевод и благодарности: Rubbiroid. Без этого замечательного человека данной раздачи просто не было бы.
Описание: Документальная лента о не простой судьбе фильма Метрополис и о том как была создана вирированная (цветная) версия фильма.
Доп. информация: В фильме есть место где говорится, о том, что версия Метрополиса Джорджио Мородера на сегодняшний день самая полная. Это так и было когда создавался данный фильм.
После фильма из этой раздачи обязательно посмотрите Путешествие в Метрополис.
Сэмпл: http://multi-up.com/848353
качество: VHSRip
формат: MKV
видеокодек: H.264
аудиокодек: AC3
Видео: MPEG4, 640x480, 950kbps, 23.976p
Аудио: AC3, 224kbps, 48kHz, stereo

MediaInfo

General
Unique ID                                : 202653370188579631624046165565610387980 (0x98759E90D94CC6F7BE34EDD61E2FEA0C)
Complete name                            : The Fading Image.480p.mkv
Format                                   : Matroska
Format version                           : Version 2
File size                                : 183 MiB
Duration                                 : 17mn 57s
Overall bit rate                         : 1 422 Kbps
Encoded date                             : UTC 2013-03-29 21:35:25
Writing application                      : mkvmerge v3.4.0 ('Rapunzel') built on May 15 2010 09:38:20
Writing library                          : libebml v0.8.0 + libmatroska v0.9.0
[br]
Video
ID                                       : 1
Format                                   : AVC
Format/Info                              : Advanced Video Codec
Format profile                           : High@L3.1
Format settings, CABAC                   : Yes
Format settings, ReFrames                : 8 frames
Codec ID                                 : V_MPEG4/ISO/AVC
Duration                                 : 17mn 57s
Bit rate                                 : 946 Kbps
Width                                    : 640 pixels
Height                                   : 480 pixels
Display aspect ratio                     : 4:3
Frame rate mode                          : Constant
Frame rate                               : 23.976 fps
Color space                              : YUV
Chroma subsampling                       : 4:2:0
Bit depth                                : 8 bits
Scan type                                : Progressive
Bits/(Pixel*Frame)                       : 0.128
Stream size                              : 121 MiB (67%)
Writing library                          : x264 core 125 r2208 d9d2288
Encoding settings                        : cabac=1 / ref=8 / deblock=1:-2:-1 / analyse=0x3:0x133 / me=umh / subme=10 / psy=1 / psy_rd=1.00:0.20 / mixed_ref=1 / me_range=24 / chroma_me=1 / trellis=2 / 8x8dct=1 / cqm=0 / deadzone=21,11 / fast_pskip=1 / chroma_qp_offset=-3 / threads=3 / lookahead_threads=1 / sliced_threads=0 / nr=0 / decimate=1 / interlaced=0 / bluray_compat=0 / constrained_intra=0 / bframes=4 / b_pyramid=2 / b_adapt=2 / b_bias=0 / direct=3 / weightb=1 / open_gop=0 / weightp=2 / keyint=250 / keyint_min=23 / scenecut=40 / intra_refresh=0 / rc_lookahead=60 / rc=crf / mbtree=1 / crf=20.0 / qcomp=0.60 / qpmin=0 / qpmax=69 / qpstep=4 / ip_ratio=1.40 / aq=1:1.00
Language                                 : English
Default                                  : No
Forced                                   : No
[br]
Audio #1
ID                                       : 2
Format                                   : AC-3
Format/Info                              : Audio Coding 3
Mode extension                           : CM (complete main)
Format settings, Endianness              : Big
Codec ID                                 : A_AC3
Duration                                 : 17mn 57s
Bit rate mode                            : Constant
Bit rate                                 : 224 Kbps
Channel(s)                               : 2 channels
Channel positions                        : Front: L R
Sampling rate                            : 48.0 KHz
Bit depth                                : 16 bits
Compression mode                         : Lossy
Stream size                              : 28.8 MiB (16%)
Language                                 : Russian
Default                                  : Yes
Forced                                   : No
[br]
Audio #2
ID                                       : 3
Format                                   : AC-3
Format/Info                              : Audio Coding 3
Mode extension                           : CM (complete main)
Format settings, Endianness              : Big
Codec ID                                 : A_AC3
Duration                                 : 17mn 57s
Bit rate mode                            : Constant
Bit rate                                 : 224 Kbps
Channel(s)                               : 2 channels
Channel positions                        : Front: L R
Sampling rate                            : 48.0 KHz
Bit depth                                : 16 bits
Compression mode                         : Lossy
Stream size                              : 28.8 MiB (16%)
Language                                 : English
Default                                  : No
Forced                                   : No

Скриншоты

[teatrix.ru].t16996.torrent 
Торрент: Зарегистрирован [ 2016-03-17 00:33 ] · 92382A3218F7A7BED1DC222D74E5E9FBDAE6EBFE

Скачать .torrent

Скачать

15 KB

Статус: проверено
Скачан: 0 раз
Размер: 183 MB
terms.php



Показать сообщения:    

Текущее время: 07-Дек 21:18

Часовой пояс: UTC + 3


Вы не можете начинать темы
Вы не можете отвечать на сообщения
Вы не можете редактировать свои сообщения
Вы не можете удалять свои сообщения
Вы не можете голосовать в опросах
Вы не можете прикреплять файлы к сообщениям
Вы можете скачивать файлы