Великий утешитель. Иван Пырьев (Андрей Разумовский, младший) [2005, документальный, фильм-портрет, DVB]


Статистика раздачи [Обновить пиров]
Размер:  1.53 GB   |    Зарегистрирован:  8 месяцев 23 дня   |    Скачан:  0 раз

Полного источника не было: Никогда

Личеров:  3  [  0 KB/s  ]   Подробная статистика пиров
 
   
 
 
 

[Цитировать]

Иван Пырьев
Великий утешитель- Год выпуска: 2005
Страна: Россия
Жанр: документальный, фильм-портрет
Продолжительность: 00:51:58
Перевод: Не требуется
Русские субтитры: нет
Режиссер: Андрей Разумовский, младшийПринимают участие: Владимир Зельдин, Максим Дунаевский, Михаил Ульянов, Сергей Соловьев, Вера Васильева, Владлен Давыдов, Александр Митта, Армен Медведьев, Марлен Хуциев, Станислав Говорухин, Нина Гребешкова
Описание: Фильм о выдающемся российском кинорежиссере Иване Александровиче Пырьеве (1901-1968), основателе и первом председателе Союза кинематографистов СССР, Народном артисте СССР, шестикратном лауреате Сталинской премии.
Всенародную популярность снискали его музыкальные комедии "Богатая невеста", "Трактористы", "Свинарка и пастух", "Кубанские казаки", романтические музыкальные фильмы "В шесть часов вечера после войны", "Сказание о земле Сибирской". Во всех этих фильмах сыграла главные роли его жена — актриса Марина Ладынина.
Доп. информация: запись со спутника (канал "Кто есть кто").
Сэмпл: http://multi-up.com/848739
качество: DVB
формат: MPEG-PS (См. при проблемах с просмотром видео)
видеокодек: MPEG2
аудиокодек: MP2
Видео: MPEG Video 2, 720x576@768x576 (4:3), 25 fps, ~3930 kbps avg, 0.379 bit/pixel
Аудио: 48 kHz, MPEG Audio 2, 2 ch, ~192.00 kbps avg

MediaInfo

Полное имя                               : H:\My Torrents\[apreder]Ivan_Pyryev(2005)DVB.mpg
Формат : MPEG-PS
Размер файла : 1,53 Гбайт
Продолжительность : 51 м.
Режим общего битрейта : Переменный
Общий поток : 4206 Кбит/сек
Видео
Идентификатор : 224 (0xE0)
Формат : MPEG Video
Версия формата : Version 2
Профиль формата : Main@Main
Параметр BVOP формата : Да
Параметр матрицы формата : Выборочная
Параметр GOP формата : M=3, N=36
Продолжительность : 51 м.
Вид битрейта : Переменный
Битрейт : 3930 Кбит/сек
Ширина : 720 пикселей
Высота : 576 пикселей
Соотношение сторон : 4:3
Частота кадров : 25,000 кадров/сек
Стандарт вещания : PAL
Цветовое пространство : YUV
Субдискретизация насыщенности : 4:2:0
Битовая глубина : 8 бит
Тип развёртки : Чересстрочная
Порядок развёртки : Верхнее поле первое
Метод сжатия : С потерями
Бит/(Пиксели*Кадры) : 0.379
Размер потока : 1,43 Гбайт (93%)
Аудио
Идентификатор : 192 (0xC0)
Формат : MPEG Audio
Версия формата : Version 1
Профиль формата : Layer 2
Продолжительность : 51 м.
Вид битрейта : Постоянный
Битрейт : 192 Кбит/сек
Каналы : 2 канала
Частота : 48,0 КГц
Метод сжатия : С потерями
Размер потока : 71,4 Мбайт (5%)

Скриншоты

Скриншоты анаморфированные

-680/662√
[teatrix.ru].t16998.torrent 
Торрент: Зарегистрирован [ 2016-03-17 00:33 ] · 25DEE4EE4536C983BE317785A68D9D817D010AEF

Скачать .torrent

Скачать

16 KB

Статус: проверено
Скачан: 0 раз
Размер: 1.53 GB
terms.php



Показать сообщения:    

Текущее время: 09-Дек 10:48

Часовой пояс: UTC + 3


Вы не можете начинать темы
Вы не можете отвечать на сообщения
Вы не можете редактировать свои сообщения
Вы не можете удалять свои сообщения
Вы не можете голосовать в опросах
Вы не можете прикреплять файлы к сообщениям
Вы можете скачивать файлы