Старинная улица Люличан / 琉璃厂文化街 / Liulichang Cultural Street [2011, Документальный, антиквариат, история, культура, произведения искусства, SATRip] CCTV


Статистика раздачи [Обновить пиров]
Размер:  302 MB   |    Зарегистрирован:  8 месяцев 17 дней   |    Скачан:  0 раз

Полного источника не было: Никогда

Личеров:  3  [  0 KB/s  ]   Подробная статистика пиров
 
   
 
 
 

[Цитировать]

Старинная улица Люличан / 琉璃厂文化街 / Liulichang Cultural Street Год выпуска: 2011
Страна: Китай
Жанр: Документальный, антиквариат, история, культура, произведения искусства
Продолжительность: 00:25:08
Перевод: Одноголосый закадровый
Русские субтитры: есть (Хардсаб - на непереведенные места)
Производство: CCTV (China Central Television), CNTV
Описание: Улица Люличан расположена за воротами Хэпинмэн, что к юго-западу от площади Тяньаньмэнь. От этой улицы до площади Тяньаньмэнь всего лишь 10 с лишним минут езды, на велосипеде или автомобиле. В связи с тем, что улица Люличан находится совсем недалеко от императорского дворца Гугун, сюда приезжали многие люди из разных районов страны для участия в госэкзаменах на получение чиновничьих должностей. Они любили посещать книжные лавки. И предприимчивые книжные купцы открыли на улице Люличан книжные лавки и магазины. Постепенно здесь сосредоточилось все, что связанно также с торговлей канцелярскими товарами, каллиграфией, живописью и антикварными вещами. Улица стала культурным центром в столице Китая. Сегодняшняя улица Люличан сложилась после реконструкции в 80-х годах прошлого века. Она стала в два раза шире, чем раньше, и состоит из восточного и западного участков. Общая протяженность улицы составляет 750 метров. На восточной части улицы в основном продаются нефритовые статуэтки, фарфоровые изделия, ювелирные изделия и деревянные изделия. На западной части улицы в основном торгуют каллиграфией и живописью, антикварными вещами. В витринах магазинов и лавок представлены коллекции и товары хозяев магазинчиков. На этой улице можно купить антикварные вещи различных исторических эпох Китая. Здесь можно найти как оригинальные исторические ценности, которые стоят баснословно дорого, так и красивые искусные репродукции...

качество: SATRip
формат: AVI
видеокодек: XviD
аудиокодек: MP3
Видео: MPEG-4 Visual, XviD, 704 х 528 (4:3), 25,000 кадров/сек, 1543 Кбит/сек, 0.166 бит/пиксель
Аудио: MP3, 48,0 КГц, 128 Кбит/сек, 2 канала
Релиз-группа OLARRI & qsdyg

MediaInfo

Общее
Полное имя : E:\torrent\Старинная улица Люличан.avi
Формат : AVI
Формат/Информация : Audio Video Interleave
Размер файла : 302 Мбайт
Продолжительность : 25 м.
Общий поток : 1681 Кбит/сек
Программа кодирования : VirtualDubMod 1.5.10.3 | www.virtualdub-fr.org || (build 2550/release)
Библиотека кодирования : VirtualDubMod build 2550/release
Видео
Идентификатор : 0
Формат : MPEG-4 Visual
Профиль формата : Advanced Simple@L5
Параметр BVOP формата : 2
Параметр QPel формата : Нет
Параметр GMC формата : Без точки перехода
Параметр матрицы формата : Выборочная
Режим смешивания : Сжатый битовый поток
Идентификатор кодека : XVID
Идентификатор кодека/Подсказка : XviD
Продолжительность : 25 м.
Битрейт : 1543 Кбит/сек
Ширина : 704 пикселя
Высота : 528 пикселей
Соотношение сторон : 4:3
Частота кадров : 25,000 кадров/сек
Цветовое пространство : YUV
Субдискретизация насыщенности : 4:2:0
Битовая глубина : 8 бит
Тип развёртки : Прогрессивная
Метод сжатия : С потерями
Бит/(Пиксели*Кадры) : 0.166
Размер потока : 278 Мбайт (92%)
Библиотека кодирования : XviD 65
Аудио
Идентификатор : 1
Формат : MPEG Audio
Версия формата : Version 1
Профиль формата : Layer 3
Идентификатор кодека : 55
Идентификатор кодека/Подсказка : MP3
Продолжительность : 25 м.
Вид битрейта : Постоянный
Битрейт : 128 Кбит/сек
Каналы : 2 канала
Частота : 48,0 КГц
Метод сжатия : С потерями
Размер потока : 23,0 Мбайт (8%)
Выравнивание : Соединение по промежуткам
Продолжительность промежутка : 40 мс. (1,00 видеокадр)
Время предзагрузки промежутка : 504 мс.
Библиотека кодирования : LAME3.99r
Настройки программы : -m s -V 4 -q 2 -lowpass 17 -b 128

Скриншоты

[teatrix.ru].t17000.torrent 
Торрент: Зарегистрирован [ 2016-03-17 00:33 ] · 0C36A492A4DD3C03F1076A7A209A83320A3226AE

Скачать .torrent

Скачать

12 KB

Статус: проверено
Скачан: 0 раз
Размер: 302 MB
terms.php



Быстрый ответ

Имя:

      
Для отправки сообщений необходимо включить JavaScript
Показать сообщения:    

Текущее время: 03-Дек 01:21

Часовой пояс: UTC + 3


Вы можете начинать темы
Вы можете отвечать на сообщения
Вы не можете редактировать свои сообщения
Вы не можете удалять свои сообщения
Вы не можете голосовать в опросах
Вы не можете прикреплять файлы к сообщениям
Вы можете скачивать файлы