Рассказы старого сплетника (Татьяна Ураевская) [2000, Документальный, архитектура, культура, искусство,, SATRip]


Статистика раздачи [Обновить пиров]
Размер:  1.74 GB   |    Зарегистрирован:  8 месяцев 16 дней   |    Скачан:  0 раз

Полного источника не было: Никогда

Личеров:  3  [  0 KB/s  ]   Подробная статистика пиров
 
   
 
 
 

[Цитировать]

Рассказы старого сплетника
Год выпуска: 2000
Страна: Россия
Выпущено: ГТРК "Культура"
Жанр: Документальный, архитектура, культура, искусство,
Продолжительность: 5 х ~ 0, 25 мин.
Перевод: Не требуется
Русские субтитры: нет

Режиссер: Татьяна Ураевская
Описание: Режиссер и сценарист, народный артист Российской Федерации Александр Белинский рассказывает о театре во всех его проявлениях, разоблачает многие легенды о театре, основываясь на собственных воспоминаниях. Искусство художественного слова, история старых знаменитых театров Москвы и Петербурга, легендарные люди театральных подмостков, балет, водевиль, мюзик-холл - все это темы выпусков программы.

Список раздаваемого материала и краткое описание серий:
1. Екатерина Максимова в Петербурге
Александр Белинский рассказывает о знаменитой балерине Екатерине Максимовой, с которой был дружен много лет. Именно для Е.Максимовой Белинский придумал жанр телебалета. Для нее он поставил такие балеты как: "Галатея", "Петер", "Чаплиниана", "Классная дама" и другие.
2. Две танцовщицы. Ненаписанная повесть А.С. Пушкина
Александр Пушкин написал 32 строки предполагаемой повести о великих русских балеринах его времени: Истоминой и Новицкой. Александр Белинский делится своими предположениями, что могла бы представлять собой ненаписанная повесть поэта.
3. Георгий Товстоногов
Александр Белинский тесно общался с Георгием Товстоноговым, когда работал под его началом в Ленинградском государственном театре им. Ленинского комсомола, и знает его как превосходного рассказчика, чтеца, любителя и знатока хорошей литературы. В программе прозвучат стихи Н. Бараташвили, М. Лермонтова, А. Пушкина в исполнении Георгия Товстоногова.
4. Николай Симонов
Не только "старый сплетник" считает Николая Симонова великим актером русской сцены. О "самом нравственном и добром артисте нашего театра" напомнят сцены из спектаклей и фрагменты фильмов: "Очарованный странник", "Моцарт и Сальери", "Петр I", "Темные аллеи", "Перед бурей".
5. Осень - самое любимое время года Александра Белинского.
Именно с осенью связаны самые важные моменты его жизни. Об этом - речь в программе.
Доп. информация: Релиз:
Автор рипа:
Сэмпл: http://multi-up.com/851201
качество: SATRip
формат: AVI
видеокодек: DivX
аудиокодек: MP3
Видео: DivX, ~ 1797 Кбит/с, 704x528,25.00fps
Аудио: MPEG Audio Layer 3 48000Hz stereo 128kbps

Список выпусков/серий

5 серий

MediaInfo

Aleksandr.Belinsky.Rasskazy.Starogo.Spletnika.SAT-rip.by.mikloeff\Aleksandr.Belinsky.Rasskazy.Starogo.Spletnika.1.SAT-rip.by.mikloeff.avi
Format : AVI
Format/Info : Audio Video Interleave
File size : 353 MiB
Duration : 25mn 29s
Overall bit rate : 1 933 Kbps
Writing library : VirtualDub build 32842/release
Video
ID : 0
Format : MPEG-4 Visual
Format settings, BVOP : No
Format settings, QPel : No
Format settings, GMC : No warppoints
Format settings, Matrix : Default (H.263)
Codec ID : DX50
Codec ID/Hint : DivX 5
Duration : 25mn 29s
Bit rate : 1 796 Kbps
Width : 704 pixels
Height : 528 pixels
Display aspect ratio : 4:3
Frame rate : 25.000 fps
Color space : YUV
Chroma subsampling : 4:2:0
Bit depth : 8 bits
Scan type : Progressive
Compression mode : Lossy
Bits/(Pixel*Frame) : 0.193
Stream size : 327 MiB (93%)
Writing library : DivX 5.2.1 (WaffleDay) (UTC 2004-09-08)
Audio
ID : 1
Format : MPEG Audio
Format version : Version 1
Format profile : Layer 3
Mode : Joint stereo
Mode extension : MS Stereo
Codec ID : 55
Codec ID/Hint : MP3
Duration : 25mn 29s
Bit rate mode : Constant
Bit rate : 128 Kbps
Channel(s) : 2 channels
Sampling rate : 48.0 KHz
Compression mode : Lossy
Delay relative to video : 4ms
Stream size : 23.3 MiB (7%)
Alignment : Split accross interleaves
Interleave, duration : 40 ms (1.00 video frame)
Interleave, preload duration : 500 ms

Скриншоты

1 с

2 с

3 с

4 с

5 с
[teatrix.ru].t17007.torrent 
Торрент: Зарегистрирован [ 2016-03-17 00:34 ] · F8DA00064D73073644C4D3C738F4780423889EDA

Скачать .torrent

Скачать

19 KB

Статус: проверено
Скачан: 0 раз
Размер: 1.74 GB
terms.php



Быстрый ответ

Имя:

      
Для отправки сообщений необходимо включить JavaScript
Показать сообщения:    

Текущее время: 02-Дек 21:13

Часовой пояс: UTC + 3


Вы можете начинать темы
Вы можете отвечать на сообщения
Вы не можете редактировать свои сообщения
Вы не можете удалять свои сообщения
Вы не можете голосовать в опросах
Вы не можете прикреплять файлы к сообщениям
Вы можете скачивать файлы