Белая студия. Борис Гребенщиков (Канал Россия Культура) [2013, Интервью, DVB]


Статистика раздачи [Обновить пиров]
Размер:  1.4 GB   |    Зарегистрирован:  8 месяцев 25 дней   |    Скачан:  0 раз

Полного источника не было: Никогда

Личеров:  3  [  0 KB/s  ]   Подробная статистика пиров
 
   
 
 
 

[Цитировать]

Белая студия. Борис Гребенщиков
Год выпуска: 2013
Страна: Россия
Жанр: Интервью
Продолжительность: 00:39:26
Перевод: Не требуется
Режиссер: Канал Россия Культура
Описание: Ведущая программы Дарья Спиридонова в "Белой студии" ведет разговор с деятелями культуры. Беседа строится вокруг значимых для собеседника произведений искусства. Это книги, кино, музыка, так или иначе, повлиявшие на становление его как личности, художника, творца.
Доп. информация: Эфир телеканала Россия Культура 6 апреля 2013 года
качество: DVB
формат: MPG
видеокодек: MPEG2
аудиокодек: MP2
Видео: MPEG-2, 720@768x576 (4:3), 4774 kbps, 0.460 bit/pixel, 25 fps
Аудио: MPEG-1 Layer 2, 192 kbps, 48000Hz, 2 chanal

MediaInfo

Общее
Полное имя : D:\Белая студия. Борис Гребенщиков [06.04.2013].mpg
Формат : MPEG-PS
Размер файла : 1,40 Гбайт
Продолжительность : 39 м.
Режим общего битрейта : Переменный
Общий поток : 5066 Кбит/сек
Библиотека кодирования : (c) 1998-2009 Womble Multimedia, Inc. / MPEG Video Wizard (03/2009) / Jun 24 2009
Видео
Идентификатор : 224 (0xE0)
Формат : MPEG Video
Версия формата : Version 2
Профиль формата : Main@Main
Параметр BVOP формата : Да
Параметр матрицы формата : Выборочная
Параметр GOP формата : M=3, N=36
Продолжительность : 39 м.
Вид битрейта : Переменный
Битрейт : 4774 Кбит/сек
Максимальный битрейт : 15,0 Мбит/сек
Ширина : 720 пикселей
Высота : 576 пикселей
Соотношение сторон : 4:3
Частота кадров : 25,000 кадров/сек
Стандарт вещания : PAL
Цветовое пространство : YUV
Субдискретизация насыщенности : 4:2:0
Битовая глубина : 8 бит
Тип развёртки : Чересстрочная
Порядок развёртки : Верхнее поле первое
Метод сжатия : С потерями
Бит/(Пиксели*Кадры) : 0.460
TimeCode_FirstFrame : 00:00:00:00
TimeCode_Source : Group of pictures header
Размер потока : 1,32 Гбайт (94%)
Библиотека кодирования : (c) 1998-2009 Womble Multimedia, Inc. / MPEG Video Wizard (03/2009) / Jun 24 2009
Аудио
Идентификатор : 192 (0xC0)
Формат : MPEG Audio
Версия формата : Version 1
Профиль формата : Layer 2
Продолжительность : 39 м.
Вид битрейта : Постоянный
Битрейт : 192 Кбит/сек
Каналы : 2 канала
Частота : 48,0 КГц
Метод сжатия : С потерями
Задержка видео : -80 мс.
Размер потока : 54,2 Мбайт (4%)

Скриншоты

[teatrix.ru].t17008.torrent 
Торрент: Зарегистрирован [ 2016-03-17 00:34 ] · 6E1175B15AC201B56F151836EBF03CD69D5F47B9

Скачать .torrent

Скачать

14 KB

Статус: проверено
Скачан: 0 раз
Размер: 1.4 GB
terms.php



Показать сообщения:    

Текущее время: 11-Дек 09:13

Часовой пояс: UTC + 3


Вы не можете начинать темы
Вы не можете отвечать на сообщения
Вы не можете редактировать свои сообщения
Вы не можете удалять свои сообщения
Вы не можете голосовать в опросах
Вы не можете прикреплять файлы к сообщениям
Вы можете скачивать файлы