Закрытый показ ("Антон тут рядом", эфир 05.04.2013) (А. Гордон) [2013, Документальный, SATRip, 720x480]


Статистика раздачи [Обновить пиров]
Размер:  870 MB   |    Зарегистрирован:  8 месяцев 19 дней   |    Скачан:  0 раз

Полного источника не было: Никогда

Личеров:  3  [  0 KB/s  ]   Подробная статистика пиров
 
   
 
 
 

[Цитировать]

Закрытый показ ("Антон тут рядом", 05.04.2013)
Год выпуска: 2013
Страна: Россия
Жанр: Документальный
Продолжительность: 01:08:40
Перевод: Не требуется
Русские субтитры: нет
Режиссер: А. Гордон
Описание: "Закрытый показ" – уникальная возможность понять, как снимается фильм, какие задачи ставят авторы, удается или нет эти задачи достичь. Известные актеры, режиссеры и продюсеры представляют свои картины, отвечают на вопросы кинокритиков и зрителей.
Если дискуссия строится вокруг фильма, то тогда в программе 2 части: предваряющая показ кино и обсуждение только что увиденного фильма.
"О вкусах не спорят" – утверждение, которое опровергается программой "Закрытый показ". Спорят и еще как! Аргументировано, эмоционально спорят в этой студии. Можно сверить свое впечатление с впечатлениями известных режиссеров, киноведов и журналистов, можно с ними согласиться или нет, а можно просто посмотреть хорошее кино и задуматься, а все ли я понял о том, что хотел сказать мне его создатель.
Первый канал.
Доп. информация: Обсуждение фильма "Антон тут рядом" (2012)
Сэмпл: http://multi-up.com/851396
качество: SATRip
формат: MPEG
видеокодек: MPEG
аудиокодек: AAC
Видео: MPEG, 720x480, 16:9, 1 353 Kbps, 25.000 fps
Аудио: AC-3, Audio Coding 3, 384 Kbps, 2 channels, 48.0 KHz, Russian

MediaInfo

General
Complete name : E:\Z.Pokaz.АНТОН ТУТ РЯДОМ.400.mpg
Format : MPEG-PS
File size : 870 MiB
Duration : 1h 8mn
Overall bit rate mode : Variable
Overall bit rate : 1 772 Kbps
Video
ID : 224 (0xE0)
Format : MPEG Video
Format version : Version 2
Format profile : Main@Main
Format settings, BVOP : Yes
Format settings, Matrix : Custom
Format settings, GOP : M=3, N=15
Duration : 1h 8mn
Bit rate mode : Variable
Bit rate : 1 353 Kbps
Maximum bit rate : 1 500 Kbps
Width : 720 pixels
Height : 480 pixels
Display aspect ratio : 16:9
Frame rate : 25.000 fps
Standard : NTSC
Color space : YUV
Chroma subsampling : 4:2:0
Bit depth : 8 bits
Scan type : Interlaced
Scan order : Top Field First
Compression mode : Lossy
Bits/(Pixel*Frame) : 0.157
Time code of first frame : 00:00:00:00
Time code source : Group of pictures header
Stream size : 664 MiB (76%)
Audio
ID : 189 (0xBD)-128 (0x80)
Format : AC-3
Format/Info : Audio Coding 3
Mode extension : CM (complete main)
Format settings, Endianness : Big
Muxing mode : DVD-Video
Duration : 1h 8mn
Bit rate mode : Constant
Bit rate : 384 Kbps
Channel(s) : 2 channels
Channel positions : Front: L R
Sampling rate : 48.0 KHz
Bit depth : 16 bits
Compression mode : Lossy
Stream size : 189 MiB (22%)

Скриншоты

Закрытый показ ("Антон тут рядом", эфир 05.04.2013) (А. Гордон) [2013, Документальный, HDTVRip, 1280x720]Рипы только за спасибо!
[teatrix.ru].t17009.torrent 
Торрент: Зарегистрирован [ 2016-03-17 00:34 ] · AF129615DC620E70DC5C2D2479202B4F56317AA5

Скачать .torrent

Скачать

17 KB

Статус: проверено
Скачан: 0 раз
Размер: 870 MB
terms.php



Показать сообщения:    

Текущее время: 05-Дек 05:29

Часовой пояс: UTC + 3


Вы не можете начинать темы
Вы не можете отвечать на сообщения
Вы не можете редактировать свои сообщения
Вы не можете удалять свои сообщения
Вы не можете голосовать в опросах
Вы не можете прикреплять файлы к сообщениям
Вы можете скачивать файлы