Музыкальный иллюминатор. New Order (Алексей Титов) [2011, Документальный, DVB]


Статистика раздачи [Обновить пиров]
Размер:  696 MB   |    Зарегистрирован:  8 месяцев 19 дней   |    Скачан:  0 раз

Полного источника не было: Никогда

Личеров:  3  [  0 KB/s  ]   Подробная статистика пиров
 
   
 
 
 

[Цитировать]

Музыкальный иллюминатор. New Order
Год выпуска: 2011
Производство: ООО «Альтаир»
Жанр: Документальный
Продолжительность: 00:26:01
Перевод: Не требуется
Русские субтитры: нет
Автор и ведущий: Александр Лоевский
Режиссер: Алексей Титов
Описание: New Order британская рок-группа, образованная в 1980 году в Манчестере членами Joy Division — Бернардом Самнером, Питером Хуком и Стивеном Моррисом, — после того как их лидер Иэн Кёртис покончил жизнь самоубийством.
Город Манчестер это одновременно и колыбель рабочего класса Великобритании, и кузница особых музыкальных талантов, словно тут особый для гитарных групп и ди-джеев воздух, а New Order всегда стояли посредине двух этих сущностей, вроде рок группа, а считаются патриархами техно и современной танцевальной поп музыки, и при всей этой двойственности, очень любимые простым народом Великобритании…
В 1990 году записанный группой гимн для футбольной сборной Англии «World in Motion» занял 1-е место, став единственным синглом New Order, возглавившим британский хит-парад.
К настоящему времени у группы в Великобритании продано 960 тысяч альбомов, в США — 2 миллиона; выпущены 8 студийных альбомов и 35 синглов…

качество: DVB
формат: MPG
видеокодек: MPEG2
аудиокодек: MP2
Видео: MPEG2 Video 720x576 (4:3) 25.00fp Bit rate 3500Kbps Constant Bits/(Pixel*Frame) 0.338
Аудио: MP2 48.0 KHz 2ch 192kbps

MediaInfo

General
Complete name : E:\torrent\Музыкальный иллюминатор.New Order.mpg
Format : MPEG-PS
File size : 696 MiB
Duration : 26mn 0s
Overall bit rate : 3 740 Kbps
Writing library : (c) 1998-2012 Womble Multimedia, Inc. / MPEG Video Wizard DVD 5.0.1.100 (03/2011) / Sep 7 2012
Video
ID : 224 (0xE0)
Format : MPEG Video
Format version : Version 2
Format profile : Main@Main
Format settings, BVOP : Yes
Format settings, Matrix : Default
Format settings, GOP : M=3, N=24
Duration : 26mn 0s
Bit rate mode : Constant
Bit rate : 3 500 Kbps
Width : 720 pixels
Height : 576 pixels
Display aspect ratio : 4:3
Frame rate : 25.000 fps
Standard : PAL
Color space : YUV
Chroma subsampling : 4:2:0
Bit depth : 8 bits
Scan type : Interlaced
Scan order : Top Field First
Bits/(Pixel*Frame) : 0.338
Stream size : 646 MiB (93%)
Writing library : (c) 1998-2012 Womble Multimedia, Inc. / MPEG Video Wizard DVD 5.0.1.100 (03/2011) / Sep 7 2012
Audio
ID : 192 (0xC0)
Format : MPEG Audio
Format version : Version 1
Format profile : Layer 2
Duration : 26mn 0s
Bit rate mode : Constant
Bit rate : 192 Kbps
Channel(s) : 2 channels
Sampling rate : 48.0 KHz
Video delay : -80ms
Stream size : 35.7 MiB (5%)

Скриншоты


MPEG2 Video 720x576 (4:3) 25.00fp Bit rate 3500Kbps Constant Bits/(Pixel*Frame) 0.338
MP2 48000Hz 2ch 192kbps
[teatrix.ru].t17011.torrent 
Торрент: Зарегистрирован [ 2016-03-17 00:36 ] · DAB9BE025AAEC23B8419A2407DA1BBE8BD687989

Скачать .torrent

Скачать

14 KB

Статус: проверено
Скачан: 0 раз
Размер: 696 MB
terms.php



Быстрый ответ

Имя:

      
Для отправки сообщений необходимо включить JavaScript
Показать сообщения:    

Текущее время: 05-Дек 13:33

Часовой пояс: UTC + 3


Вы можете начинать темы
Вы можете отвечать на сообщения
Вы не можете редактировать свои сообщения
Вы не можете удалять свои сообщения
Вы не можете голосовать в опросах
Вы не можете прикреплять файлы к сообщениям
Вы можете скачивать файлы