Концерт ансамбля песни и пляски им. А.В. Александрова (Евгения Ежова) [2013, Концерт, IPTVRip]


Статистика раздачи [Обновить пиров]
Размер:  929 MB   |    Зарегистрирован:  8 месяцев 21 день   |    Скачан:  0 раз

Полного источника не было: Никогда

Личеров:  3  [  0 KB/s  ]   Подробная статистика пиров
 
   
 
 
 

[Цитировать]

Концерт ансамбля песни и пляски им. А.В. Александрова
Год выпуска: 2013
Страна: Россия
Жанр: Концерт
Продолжительность: 01:00:09
Перевод: Не требуется
Русские субтитры: нет
Режиссер: Евгения Ежова
Описание: Прославленный, военный художественный коллектив, Дважды Краснознаменный Академический ансамбль песни и пляски Российской Армии им. А.В. Александрова исполняет популярные песни разных лет, романсы, русские народные песни. В программе также хореографические композиции. Главный дирижер и художественный руководитель коллектива - народный артист России, профессор Игорь Раевский.
Доп. информация: Концерт начинается с песни А. Александрова и С. Колычева - Несокрушимая и легендарная
Сэмпл: http://yadi.sk/d/cAStP36y43uD0
качество: IPTVRip
формат: AVI
видеокодек: XviD
аудиокодек: MP3
Видео: Xvid, 688x560, 4:3, 1749 Kbps, 25fps
Аудио: mp3, 128kbps, 48000Hz, 2Ch

MediaInfo

General
Format : AVI
Format/Info : Audio Video Interleave
File size : 812 MiB
Duration : 1h 0mn
Overall bit rate : 1 886 Kbps
Writing library : VirtualDub build 32842/release
Video
ID : 0
Format : MPEG-4 Visual
Format profile : Advanced Simple@L5
Format settings, BVOP : 2
Format settings, QPel : No
Format settings, GMC : No warppoints
Format settings, Matrix : Default (H.263)
Muxing mode : Packed bitstream
Codec ID : XVID
Codec ID/Hint : XviD
Duration : 1h 0mn
Bit rate : 1 749 Kbps
Width : 688 pixels
Height : 560 pixels
Display aspect ratio : 4:3
Frame rate : 25.000 fps
Color space : YUV
Chroma subsampling : 4:2:0
Bit depth : 8 bits
Scan type : Progressive
Compression mode : Lossy
Bits/(Pixel*Frame) : 0.182
Stream size : 752 MiB (93%)
Writing library : XviD 64
Audio
ID : 1
Format : MPEG Audio
Format version : Version 1
Format profile : Layer 3
Codec ID : 55
Codec ID/Hint : MP3
Duration : 1h 0mn
Bit rate mode : Constant
Bit rate : 128 Kbps
Channel(s) : 2 channels
Sampling rate : 48.0 KHz
Compression mode : Lossy
Stream size : 55.1 MiB (7%)
Alignment : Split accross interleaves
Interleave, duration : 40 ms (1.00 video frame)
Interleave, preload duration : 500 ms

Скриншоты

[teatrix.ru].t17021.torrent 
Торрент: Зарегистрирован [ 2016-03-17 00:35 ] · 7C670026B37E4F7E5C0F05DCB61E873E34396EBD

Скачать .torrent

Скачать

19 KB

Статус: проверено
Скачан: 0 раз
Размер: 929 MB
terms.php



Быстрый ответ

Имя:

      
Для отправки сообщений необходимо включить JavaScript
Показать сообщения:    

Текущее время: 07-Дек 13:39

Часовой пояс: UTC + 3


Вы можете начинать темы
Вы можете отвечать на сообщения
Вы не можете редактировать свои сообщения
Вы не можете удалять свои сообщения
Вы не можете голосовать в опросах
Вы не можете прикреплять файлы к сообщениям
Вы можете скачивать файлы