Годар: Сделано в США / Godard: Made in USA (Luc Lagier) [2009, документальный фильм, SATRip]


Статистика раздачи [Обновить пиров]
Размер:  823 MB   |    Зарегистрирован:  8 месяцев 18 дней   |    Скачан:  0 раз

Полного источника не было: Никогда

Личеров:  3  [  0 KB/s  ]   Подробная статистика пиров
 
   
 
 
 

[Цитировать]

Годар: Сделано в США / Godard: Made in USA
Год выпуска: 2009
Страна: Франция
Жанр: документальный фильм
Продолжительность: 00:48:12
Перевод: Студийный (одноголосый закадровый), "SDI Media" - Роман Антанович
Русские субтитры: нет
Режиссер: Luc Lagier
Описание: Документальный фильм исследует влияние американского кинематографа на творчество знаменитого французского режиссера Жан-Люка Годара. Что связывало его с США? Как американский кинематограф повлиял на творчество знаменитого режиссера? Каков был его личный опыт работы в США, и какое влияние его творчество оказало на американских режиссеров?
Сэмпл: http://multi-up.com/855714
Ссылка на предыдущие и альтернативные раздачи
качество: SATRip
формат: MP4
видеокодек: H.264
аудиокодек: AC3
Видео: H.264, 2000 Кбит/сек, 720x400, 25fps
Аудио: Русский: AC3, 2 ch, 48,0 КГц, 192 Кбит/сек
Французский: AC3, 2 ch, 48,0 КГц, 192 Кбит/сек

MediaInfo

Complete name : Godard. Made In USA (2009).mp4
Format : MPEG-4
Format profile : Base Media / Version 2
Codec ID : mp42
File size : 823 MiB
Duration : 48mn 12s
Overall bit rate : 2 387 Kbps
Encoded date : UTC 2013-04-17 03:22:51
Tagged date : UTC 2013-04-17 03:51:09
Writing application : HandBrake 0.9.8 2012071700
Video
ID : 1
Format : AVC
Format/Info : Advanced Video Codec
Format profile : Main@L3.0
Format settings, CABAC : Yes
Format settings, ReFrames : 4 frames
Codec ID : avc1
Codec ID/Info : Advanced Video Coding
Duration : 48mn 12s
Bit rate mode : Variable
Bit rate : 2 000 Kbps
Width : 720 pixels
Height : 400 pixels
Display aspect ratio : 16:9
Frame rate mode : Constant
Frame rate : 25.000 fps
Color space : YUV
Chroma subsampling : 4:2:0
Bit depth : 8 bits
Scan type : Progressive
Bits/(Pixel*Frame) : 0.278
Stream size : 690 MiB (84%)
Writing library : x264 core 120
Encoding settings : cabac=1 / ref=3 / deblock=1:-1:-1 / analyse=0x1:0x111 / me=hex / subme=8 / psy=1 / psy_rd=1.00:0.00 / mixed_ref=1 / me_range=16 / chroma_me=1 / trellis=1 / 8x8dct=0 / cqm=0 / deadzone=21,11 / fast_pskip=1 / chroma_qp_offset=-2 / threads=6 / sliced_threads=0 / nr=0 / decimate=1 / interlaced=0 / bluray_compat=0 / constrained_intra=0 / bframes=3 / b_pyramid=2 / b_adapt=1 / b_bias=0 / direct=1 / weightb=1 / open_gop=0 / weightp=1 / keyint=250 / keyint_min=25 / scenecut=40 / intra_refresh=0 / rc_lookahead=10 / rc=abr / mbtree=1 / bitrate=2000 / ratetol=1.0 / qcomp=0.60 / qpmin=3 / qpmax=69 / qpstep=4 / ip_ratio=1.40 / aq=1:1.00
Encoded date : UTC 2013-04-17 03:22:51
Tagged date : UTC 2013-04-17 03:51:09
Color primaries : BT.601 NTSC
Transfer characteristics : BT.709
Matrix coefficients : BT.601
Audio #1
ID : 2
Format : AC-3
Format/Info : Audio Coding 3
Mode extension : CM (complete main)
Format settings, Endianness : Big
Codec ID : ac-3
Duration : 48mn 12s
Bit rate mode : Constant
Bit rate : 192 Kbps
Channel(s) : 2 channels
Channel positions : Front: L R
Sampling rate : 48.0 KHz
Bit depth : 16 bits
Compression mode : Lossy
Delay relative to video : 80ms
Stream size : 66.2 MiB (8%)
Language : Russian
Encoded date : UTC 2013-04-17 03:22:51
Tagged date : UTC 2013-04-17 03:51:09
Audio #2
ID : 3
Format : AC-3
Format/Info : Audio Coding 3
Mode extension : CM (complete main)
Format settings, Endianness : Big
Codec ID : ac-3
Duration : 48mn 12s
Bit rate mode : Constant
Bit rate : 192 Kbps
Channel(s) : 2 channels
Channel positions : Front: L R
Sampling rate : 48.0 KHz
Bit depth : 16 bits
Compression mode : Lossy
Delay relative to video : 80ms
Stream size : 66.2 MiB (8%)
Language : English
Encoded date : UTC 2013-04-17 03:22:51
Tagged date : UTC 2013-04-17 03:51:09

Скриншоты

[teatrix.ru].t17025.torrent 
Торрент: Зарегистрирован [ 2016-03-17 00:35 ] · F85FE58B131C55F3522FB6C4726520762799C585

Скачать .torrent

Скачать

17 KB

Статус: проверено
Скачан: 0 раз
Размер: 823 MB
terms.php



Показать сообщения:    

Текущее время: 04-Дек 23:20

Часовой пояс: UTC + 3


Вы не можете начинать темы
Вы не можете отвечать на сообщения
Вы не можете редактировать свои сообщения
Вы не можете удалять свои сообщения
Вы не можете голосовать в опросах
Вы не можете прикреплять файлы к сообщениям
Вы можете скачивать файлы