Запечатлено на пленку: Настоящая история Мэрион Дэвис / Captured on Film: The True Story of Marion Davies (Hugh Munro Neely / Хью Манро Нили)[2001, США, документальный, биография, DVDRip] sub (Rus, Eng) + original (Eng)


Статистика раздачи [Обновить пиров]
Размер:  745 MB   |    Зарегистрирован:  8 месяцев 20 дней   |    Скачан:  1 раз

Полного источника не было: 2 месяца 10 дней

Личеров:  3  [  0 KB/s  ]   Подробная статистика пиров
 
   
 
 
 

[Цитировать]

Запечатлено на пленку: Настоящая история Мэрион Дэвис /
Captured on Film: The True Story of Marion Davies


Год выпуска: 2001
Производство: Timeline Films, UCLA Film and Television Archive
Премьера: 14 февраля 2001 г.
Жанр: документальный, биография
Продолжительность: 01:00:05
Оригинальная аудиодорожка: английский
Перевод: субтитры (перевод olss, erfv)
Субтитры: русские, английские-Режиссер: Hugh Munro Neely / Хью Манро Нили-Описание:
Документальный фильм о жизни и творчестве одной из самых красивых и талантливых актрис немого и раннего звукового кино, Мэрион Дэвис. Фильм включает интервью историков кино, кинокритиков, людей, ее знавших, редкие документальные кадры, а также отрывки интервью актрисы, записанного в 1951 году.-За английские субтитры большое спасибо bobhangsit (karagarga)
-Качество видео: DVDRip
Формат видео: AVI
Размер: 745 Мб
Видео: 640x480 (1.33:1), 23.976 fps, XviD MPEG-4, 1530 kbps avg, 0.21 bit/pixel
Аудио: 48 kHz, MP3, 2 ch, 192 kbps (английский)
Субтитры: русские, английские
Формат субтитров: softsub (SRT)

Рип с издания Image Entertainment http://teatrix.ru/viewtopic.php?t=4418615

Фильмография МЭРИОН ДЭВИС на rutracker.org

http://teatrix.ru/viewtopic.php?t=4348750

Отчет Mediainfo

General
Format : AVI
Format/Info : Audio Video Interleave
File size : 745 MiB
Duration : 1h 0mn
Overall bit rate : 1 731 Kbps
Writing application : VirtualDubMod 1.5.10.2 (build 2540/release)
Writing library : VirtualDubMod build 2540/release
Video
ID : 0
Format : MPEG-4 Visual
Format profile : Advanced Simple@L5
Format settings, BVOP : Yes
Format settings, QPel : No
Format settings, GMC : No warppoints
Format settings, Matrix : Default (MPEG)
Codec ID : XVID
Codec ID/Hint : XviD
Duration : 1h 0mn
Bit rate : 1 530 Kbps
Width : 640 pixels
Height : 480 pixels
Display aspect ratio : 4:3
Frame rate : 23.976 fps
Resolution : 8 bits
Colorimetry : 4:2:0
Scan type : Progressive
Bits/(Pixel*Frame) : 0.208
Stream size : 658 MiB (88%)
Writing library : XviD 1.2.1 (UTC 2008-12-04)
Audio
ID : 1
Format : MPEG Audio
Format version : Version 1
Format profile : Layer 3
Mode : Joint stereo
Codec ID : 55
Codec ID/Hint : MP3
Duration : 1h 0mn
Bit rate mode : Constant
Bit rate : 192 Kbps
Channel(s) : 2 channels
Sampling rate : 48.0 KHz
Stream size : 82.6 MiB (11%)
Alignment : Aligned on interleaves
Interleave, duration : 42 ms (1.00 video frame)
Interleave, preload duration : 504 ms
[teatrix.ru].t17028.torrent 
Торрент: Зарегистрирован [ 2016-03-17 00:38 ] · 5BB2BDE2AE0B8E124C76FFF1175D21CC90A43371

Скачать .torrent

Скачать

15 KB

Статус: проверено
Скачан: 1 раз
Размер: 745 MB
terms.php



Показать сообщения:    

Текущее время: 06-Дек 13:08

Часовой пояс: UTC + 3


Вы не можете начинать темы
Вы не можете отвечать на сообщения
Вы не можете редактировать свои сообщения
Вы не можете удалять свои сообщения
Вы не можете голосовать в опросах
Вы не можете прикреплять файлы к сообщениям
Вы можете скачивать файлы