Хью Лори: Вниз по реке / Perspectives, Season 1, Episode 3: Hugh Laurie - Down by the River (Джон-Пол Дэвидсон / John Paul Davidson) [2011 г., Blues, Jazz, Documentary, DVB] MVO (24ДОК)


Статистика раздачи [Обновить пиров]
Размер:  759 MB   |    Зарегистрирован:  10 месяцев 7 дней   |    Скачан:  1 раз

Полного источника не было: 6 месяцев 7 дней

Личеров:  3  [  0 KB/s  ]   Подробная статистика пиров
 
   
 
 
 

[Цитировать]

Хью Лори: Вниз по реке
Perspectives, Season 1, Episode 3: Hugh Laurie - Down by the River- Страна: Великобритания
Жанр: Blues, Jazz, Documentary
Продолжительность: 00:46:35
Год выпуска: 2011 г.
Перевод: профессиональный (многоголосый закадровый) (канал "24ДОК")
Режиссер: Джон-Пол Дэвидсон / John Paul Davidson
Описание: Талантливый человек талантлив во всем, и фильм «Путешествие вниз по реке с Хью Лори» в очередной раз подтверждает этот тезис. Документальная лента открывает нам одну из многих граней творческой жизни любимого миллионами людей по всему миру «доктора Хауса» - актера, режиссера, продюсера, писателя, певца и пианиста. Посмотреть фильм также будет любопытно всем, кто неравнодушен к блюзу. Пронизанный тонким юмором и, разумеется, музыкой фильм «Путешествие вниз по реке с Хью Лори» – это своего рода пропуск в особый мир, где знаменитый актер перевоплощается в музыкального критика и рассказывает нам о выдающихся блюзменах, а заодно знакомит с традициями американского юга. Сидя за рулем винтажного красного Форда, Лори рассуждает о жизни и музыке, щедро делясь шутками и любимыми композициями. Трудно не поддаться обаянию рассказчика и дорожно-блюзовому настроению фильма. В съемках приняли участие такие музыканты, как Аллен Туссен, Сэр Том Джонс, Ирма Томас, а также группа Хью Лори. (Admin dokonline)
Доп. информация: http://www.imdb.com/title/tt2791210/
Источник: Запись со спутника (канал "24ДОК").
Сэмпл: http://multi-up.com/858928
Качество: DVB
Контейнер: MPEG-PS (См. при проблемах с просмотром видео)
Видео кодек: MPEG2
Аудио кодек: MP2
Видео: MPEG Video 2, 720x576@768x576 (4:3), 25 fps, ~2036 kbps avg, 0.196 bit/pixel
Аудио: 48 kHz, MPEG Audio 2, 2 ch, ~192.00 kbps avg

MediaInfo

Полное имя                               : H:\My Torrents\[apreder]Hugh_Laurie_Down_by_the_River(2011)DVB.mpg
Формат : MPEG-PS
Размер файла : 759 Мбайт
Продолжительность : 46 м.
Режим общего битрейта : Переменный
Общий поток : 2273 Кбит/сек
Видео
Идентификатор : 224 (0xE0)
Формат : MPEG Video
Версия формата : Version 2
Профиль формата : Main@Main
Параметр BVOP формата : Да
Параметр матрицы формата : Выборочная
Параметр GOP формата : Variable
Продолжительность : 46 м.
Вид битрейта : Переменный
Битрейт : 2036 Кбит/сек
Ширина : 720 пикселей
Высота : 576 пикселей
Соотношение сторон : 4:3
Частота кадров : 25,000 кадров/сек
Стандарт вещания : PAL
Цветовое пространство : YUV
Субдискретизация насыщенности : 4:2:0
Битовая глубина : 8 бит
Тип развёртки : Чересстрочная
Порядок развёртки : Верхнее поле первое
Метод сжатия : С потерями
Бит/(Пиксели*Кадры) : 0.196
TimeCode_FirstFrame : 00:00:00:00
TimeCode_Source : Group of pictures header
Размер потока : 679 Мбайт (90%)
Аудио
Идентификатор : 192 (0xC0)
Формат : MPEG Audio
Версия формата : Version 1
Профиль формата : Layer 2
Продолжительность : 46 м.
Вид битрейта : Постоянный
Битрейт : 192 Кбит/сек
Каналы : 2 канала
Частота : 48,0 КГц
Метод сжатия : С потерями
Размер потока : 64,1 Мбайт (8%)

Скриншоты


Скриншоты анаморфированные


-693/675√
[teatrix.ru].t17030.torrent 
Торрент: Зарегистрирован [ 2016-03-17 00:37 ] · 98D9F5EC2327536E86000C711B59969235643311

Скачать .torrent

Скачать

15 KB

Статус: проверено
Скачан: 1 раз
Размер: 759 MB
terms.php



Быстрый ответ

Имя:

      
Для отправки сообщений необходимо включить JavaScript
Показать сообщения:    

Текущее время: 25-Янв 00:21

Часовой пояс: UTC + 3


Вы можете начинать темы
Вы можете отвечать на сообщения
Вы не можете редактировать свои сообщения
Вы не можете удалять свои сообщения
Вы не можете голосовать в опросах
Вы не можете прикреплять файлы к сообщениям
Вы можете скачивать файлы