Хулиганский кинематограф / Baadasssss Cinema (Исаак Жюльен / Isaac Julien) [2002, США, документальный, DVDRip]


Статистика раздачи [Обновить пиров]
Размер:  1.26 GB   |    Зарегистрирован:  8 месяцев 23 дня   |    Скачан:  0 раз

Полного источника не было: Никогда

Личеров:  3  [  0 KB/s  ]   Подробная статистика пиров
 
   
 
 
 

[Цитировать]

Хулиганский кинематограф / Baadasssss Cinema
Страна: США
Жанр: документальный
Год выпуска: 2002
Продолжительность: 00:55:23
Перевод: Одноголосый закадровый Вячеслав Котов
Режиссер: Исаак Жюльен / Isaac Julien
В ролях:
Пэм Гриер
Фред Уильямсон
Мелвин Ван Пиблз
Элвис Митчелл
Глория Хендри
Квентин Тарантино
Сэмюэл Л. Джексон
Афени Шакур
Эд Герерро
Армонд Уайт
Описание: Документальный фильм, рассказывающий о жанре блэксплотейшен.
релиз:

в раздаче 5 файлов:
# Док. фильм
# Интервью с Глорией Хендри
# Интервью с Квентином Тарантино
# Интервью с Пэм Гриер
# Интервью с Фредом Уильямсоном

Качество видео: DVDRip
Формат видео: AVI
пример видео:
Видео: 720x448 (1.61:1), 29.970 fps, XviD build 64 ~1799 kbps avg, 0.19 bit/pixel
Аудио: 48 kHz, AC3 Dolby Digital, 2/0 (L,R) ch, ~192.00 kbps avg (русский)
Аудио 2: 48 kHz, AC3 Dolby Digital, 2/0 (L,R) ch, ~224.00 kbps avg (английский)

инфо

General
Complete name : D:\torrent\1 раздачи\Хулиганский кинематограф\Хулиганский кинематограф.avi
Format : AVI
Format/Info : Audio Video Interleave
File size : 885 MiB
Duration : 55mn 23s
Overall bit rate : 2 234 Kbps
Writing application : VirtualDubMod 1.5.10.2 (build 2540/release)
Writing library : VirtualDubMod build 2540/release
Video
ID : 0
Format : MPEG-4 Visual
Format profile : Advanced Simple@L5
Format settings, BVOP : 1
Format settings, QPel : No
Format settings, GMC : No warppoints
Format settings, Matrix : Custom
Codec ID : XVID
Codec ID/Hint : XviD
Duration : 55mn 23s
Bit rate : 1 800 Kbps
Width : 720 pixels
Height : 448 pixels
Display aspect ratio : 1.607
Frame rate : 29.970 fps
Color space : YUV
Chroma subsampling : 4:2:0
Bit depth : 8 bits
Scan type : Progressive
Compression mode : Lossy
Bits/(Pixel*Frame) : 0.186
Stream size : 713 MiB (81%)
Writing library : XviD 64
Audio #1
ID : 1
Format : AC-3
Format/Info : Audio Coding 3
Mode extension : CM (complete main)
Format settings, Endianness : Big
Codec ID : 2000
Duration : 55mn 23s
Bit rate mode : Constant
Bit rate : 192 Kbps
Channel(s) : 2 channels
Channel positions : Front: L R
Sampling rate : 48.0 KHz
Bit depth : 16 bits
Compression mode : Lossy
Stream size : 76.1 MiB (9%)
Alignment : Split accross interleaves
Interleave, duration : 33 ms (1.00 video frame)
Interleave, preload duration : 500 ms
Audio #2
ID : 2
Format : AC-3
Format/Info : Audio Coding 3
Mode extension : CM (complete main)
Format settings, Endianness : Big
Codec ID : 2000
Duration : 55mn 23s
Bit rate mode : Constant
Bit rate : 224 Kbps
Channel(s) : 2 channels
Channel positions : Front: L R
Sampling rate : 48.0 KHz
Bit depth : 16 bits
Compression mode : Lossy
Stream size : 88.7 MiB (10%)
Alignment : Split accross interleaves
Interleave, duration : 33 ms (1.00 video frame)
Interleave, preload duration : 500 ms

На трекере есть документальные фильмы, посвящённые австралийскому и филиппинскому эксплуатационному кино
Не совсем Голливуд: потрясающая, нераскрытая история австралийского эксплуатационного кино / Not Quite Hollywood: The Wild, Untold Story of Ozploitation!
Девки с мачете на свободе! / Machete Maidens Unleashed!
[teatrix.ru].t17038.torrent 
Торрент: Зарегистрирован [ 2016-03-17 00:37 ] · 70917A5E699DAC8D4A0D9DDEDF2E54662CA7247F

Скачать .torrent

Скачать

14 KB

Статус: проверено
Скачан: 0 раз
Размер: 1.26 GB
terms.php



Показать сообщения:    

Текущее время: 09-Дек 08:46

Часовой пояс: UTC + 3


Вы не можете начинать темы
Вы не можете отвечать на сообщения
Вы не можете редактировать свои сообщения
Вы не можете удалять свои сообщения
Вы не можете голосовать в опросах
Вы не можете прикреплять файлы к сообщениям
Вы можете скачивать файлы