Музыкальный иллюминатор. AC/DC (Алексей Титов) [2011, Документальный, DVB]


Статистика раздачи [Обновить пиров]
Размер:  695 MB   |    Зарегистрирован:  8 месяцев 16 дней   |    Скачан:  0 раз

Полного источника не было: Никогда

Личеров:  3  [  0 KB/s  ]   Подробная статистика пиров
 
   
 
 
 

[Цитировать]

Музыкальный иллюминатор. AC/DC
Год выпуска: 2011
Производство: ООО «Альтаир»
Жанр: Документальный
Продолжительность: 00:25:59
Перевод: Не требуется
Русские субтитры: нет
Автор и ведущий: Александр Лоевский
Режиссер: Алексей Титов
Описание: AC/DC — австралийская рок-группа, сформированная в Сиднее (Австралия) в ноябре 1973 года выходцами из Шотландии, братьями Малколмом и Ангусом Янгами.
Вместе с такими группами как Led Zeppelin, Deep Purple, Queen, Iron Maiden, Scorpions, Black Sabbath, Uriah Heep, Judas Priest и Motorhead AC/DC часто рассматриваются как пионеры хард-рока и хеви-метала. Сами же музыканты классифицировали свою музыку как рок-н-ролл, поскольку в её основе лежит ритм-энд-блюз с сильно искажённым звучанием ритмической и соло-гитар.
Коллектив прошёл через несколько изменений составов, прежде чем в 1975 году был издан первый альбом группы, High Voltage. Состав группы оставался неизменным, пока бас-гитарист Марк Эванс не был замещён Клиффом Уильямсом в 1977 году. 19 февраля 1980 года от сильного алкогольного опьянения умер вокалист и автор песен коллектива Бон Скотт. Группа имела все шансы распасться, но вскоре замена Скотту была найдена, в лице бывшего вокалиста группы Geordie Брайана Джонсона. В этом же году группа записала свой самый продаваемый альбом, Back in Black.
Коллектив продал свыше 150 миллионов копий альбомов по всему миру, включая 68 миллионов в США. Самый успешный альбом, Back in Black, был продан в количестве более 22 миллионов в США и более 42 миллионов за их пределами. В целом AC/DC является самой успешной и известной рок-группой из Австралии и одной из популярнейших в мире.

качество: DVB
формат: MPG
видеокодек: MPEG2
аудиокодек: MP2
Видео: MPEG2 Video 720x576 (4:3) 25.00fp Bit rate 3500Kbps Constant Bits/(Pixel*Frame) 0.338
Аудио: MP2 48000Hz 2ch 192kbps

MediaInfo

General
Complete name : E:\torrent\Музыкальный иллюминатор. ACDC.mpg
Format : MPEG-PS
File size : 695 MiB
Duration : 25mn 59s
Overall bit rate : 3 739 Kbps
Writing library : (c) 1998-2012 Womble Multimedia, Inc. / MPEG Video Wizard DVD 5.0.1.100 (03/2011) / Sep 7 2012
Video
ID : 224 (0xE0)
Format : MPEG Video
Format version : Version 2
Format profile : Main@Main
Format settings, BVOP : Yes
Format settings, Matrix : Default
Format settings, GOP : M=3, N=21
Duration : 25mn 59s
Bit rate mode : Constant
Bit rate : 3 500 Kbps
Width : 720 pixels
Height : 576 pixels
Display aspect ratio : 4:3
Frame rate : 25.000 fps
Standard : PAL
Color space : YUV
Chroma subsampling : 4:2:0
Bit depth : 8 bits
Scan type : Interlaced
Scan order : Top Field First
Bits/(Pixel*Frame) : 0.338
Stream size : 646 MiB (93%)
Writing library : (c) 1998-2012 Womble Multimedia, Inc. / MPEG Video Wizard DVD 5.0.1.100 (03/2011) / Sep 7 2012
Audio
ID : 192 (0xC0)
Format : MPEG Audio
Format version : Version 1
Format profile : Layer 2
Duration : 25mn 59s
Bit rate mode : Constant
Bit rate : 192 Kbps
Channel(s) : 2 channels
Sampling rate : 48.0 KHz
Video delay : -80ms
Stream size : 35.7 MiB (5%)

Скриншоты

[teatrix.ru].t17042.torrent 
Торрент: Зарегистрирован [ 2016-03-17 00:37 ] · D57EB552B503109C9118823E80B2B89A517D8C6F

Скачать .torrent

Скачать

14 KB

Статус: проверено
Скачан: 0 раз
Размер: 695 MB
terms.php



Быстрый ответ

Имя:

      
Для отправки сообщений необходимо включить JavaScript
Показать сообщения:    

Текущее время: 02-Дек 23:11

Часовой пояс: UTC + 3


Вы можете начинать темы
Вы можете отвечать на сообщения
Вы не можете редактировать свои сообщения
Вы не можете удалять свои сообщения
Вы не можете голосовать в опросах
Вы не можете прикреплять файлы к сообщениям
Вы можете скачивать файлы