Тайны советского кино. Гусарская баллада (Максим Володин) [2012, Документальный цикл, познавательный, DVB]


Статистика раздачи [Обновить пиров]
Размер:  736 MB   |    Зарегистрирован:  8 месяцев 24 дня   |    Скачан:  0 раз

Полного источника не было: Никогда

Личеров:  3  [  0 KB/s  ]   Подробная статистика пиров
 
   
 
 
 

[Цитировать]

Тайны советского кино. Гусарская баллада
Год выпуска: 2012
Страна: Россия
Жанр: Документальный цикл, познавательный
Продолжительность: 00:25:59
Режиссер: Максим Володин
Описание: Советский кинематограф хранит много тайн. Программа рассказывает о легендарных картинах, людях и явлениях ушедшей эпохи СССР и новейшей истории России, о тех местах, которые нам известны по прославленным фильмам, повествует о непростых и интересных судьбах актеров и режиссеров, показывает редкие кадры со съемочных площадок
качество: DVB
формат: MPG
видеокодек: MPEG2
аудиокодек: MP2
Видео: MPEG-2 Video, 720x576 (4:3), 25 fps, ~3 600 Kbps
Аудио: Russian: 48 kHz, MPEG Audio, 2 ch, 192 kbps

MediaInfo

Общее
Полное имя : E:\MPEG\Тайны советского кино. Гусарская баллада. 2012.DVB.Doc66.mpg
Формат : MPEG-PS
Размер файла : 736 Мбайт
Продолжительность : 25 м.
Режим общего битрейта : Переменный
Общий поток : 3957 Кбит/сек
Видео
Идентификатор : 224 (0xE0)
Формат : MPEG Video
Версия формата : Version 2
Профиль формата : Main@Main
Параметр BVOP формата : Да
Параметр матрицы формата : Выборочная
Продолжительность : 25 м.
Вид битрейта : Переменный
Битрейт : 3686 Кбит/сек
Максимальный битрейт : 15,0 Мбит/сек
Ширина : 720 пикселей
Высота : 576 пикселей
Соотношение сторон : 4:3
Частота кадров : 25,000 кадров/сек
Стандарт вещания : PAL
Цветовое пространство : YUV
Субдискретизация насыщенности : 4:2:0
Битовая глубина : 8 бит
Метод сжатия : С потерями
Бит/(Пиксели*Кадры) : 0.356
Размер потока : 685 Мбайт (93%)
Аудио
Идентификатор : 192 (0xC0)
Формат : MPEG Audio
Версия формата : Version 1
Профиль формата : Layer 2
Продолжительность : 25 м.
Вид битрейта : Постоянный
Битрейт : 192 Кбит/сек
Каналы : 2 канала
Частота : 48,0 КГц
Метод сжатия : С потерями
Размер потока : 35,7 Мбайт (5%)

Скриншоты

[teatrix.ru].t17044.torrent 
Торрент: Зарегистрирован [ 2016-03-17 00:37 ] · 05ACB016778EFC4AF9C3B0D9B1B7042781313D9A

Скачать .torrent

Скачать

4 KB

Статус: проверено
Скачан: 0 раз
Размер: 736 MB
terms.php



Показать сообщения:    

Текущее время: 10-Дек 15:49

Часовой пояс: UTC + 3


Вы не можете начинать темы
Вы не можете отвечать на сообщения
Вы не можете редактировать свои сообщения
Вы не можете удалять свои сообщения
Вы не можете голосовать в опросах
Вы не можете прикреплять файлы к сообщениям
Вы можете скачивать файлы