Андрей Тарковский. Воспоминание (Андрей Тарковский младший, Алексей Найденов) [1995, документальный, биография, DVB]


Статистика раздачи [Обновить пиров]
Размер:  868 MB   |    Зарегистрирован:  8 месяцев 23 дня   |    Скачан:  0 раз

Полного источника не было: Никогда

Личеров:  3  [  0 KB/s  ]   Подробная статистика пиров
 
   
 
 
 

[Цитировать]

Андрей Тарковский
Воспоминание- Год выпуска: 1995
Страна: Россия
Жанр: документальный, биография
Продолжительность: 00:23:54
Перевод: Не требуется
Русские субтитры: нет
Режиссер: Андрей Тарковский младший, Алексей Найденов
Описание: "Вспоминая свое детство, отца, я ловлю себя на мысли, что наша жизнь состояла из долгих расставаний и коротких встреч. Его работа, отъезд в Италию, 4 года в ожидании свидания. И, наконец, после года жизни вместе, его смерть". (Андрей Тарковский младший)
Глубоко личный фильм о последних днях режиссера снят его сыном. Голос автора звучит за кадром, лица его не видно, но мы как бы смотрим его глазами на все происходящее, вместе с ним беседуем с Анной Семеновной, тещей Тарковского, с Ларисой Павловной, его вдовой (она умерла вскоре после съемок фильма, в 1996 году), с французским переводчиком "Запечатленного времени" (монографии Тарковского о киноискусстве). И перед нами возникает образ живого человека: вдумчивого, серьезного, временами невыносимого, а временами - веселого, умеющего радоваться жизни, природе, красоте. А еще - образ русского человека, который сам, своими руками строит дом, колет дрова, мастерит какие-то вещи из дерева... Просто живой человек. Живой Тарковский. (Юлия Анохина)
Доп. информация: Запись со спутника (канал "Дождь").
Сэмпл: http://dfiles.ru/files/ccmgxz3tp (multi-up.com не работает)
качество: DVB
формат: MPEG-PS (См. при проблемах с просмотром видео)
видеокодек: MPEG2
аудиокодек: MP2
Видео: MPEG Video 2, 720x576@1024x576 (16:9), 25 fps, ~4779 kbps avg, 0.461 bit/pixel
Аудио: 48 kHz, MPEG Audio 2, 2 ch, ~192.00 kbps avg

MediaInfo

Полное имя                               : H:\My Torrents\[apreder]Andrei_Tarkovsky_Recollection(1995)DVB.mpg
Формат : MPEG-PS
Размер файла : 868 Мбайт
Продолжительность : 23 м.
Режим общего битрейта : Переменный
Общий поток : 5072 Кбит/сек
Видео
Идентификатор : 224 (0xE0)
Формат : MPEG Video
Версия формата : Version 2
Профиль формата : Main@Main
Параметр BVOP формата : Да
Параметр матрицы формата : Выборочная
Параметр GOP формата : M=3, N=36
Продолжительность : 23 м.
Вид битрейта : Переменный
Битрейт : 4779 Кбит/сек
Ширина : 720 пикселей
Высота : 576 пикселей
Соотношение сторон : 16:9
Частота кадров : 25,000 кадров/сек
Стандарт вещания : PAL
Цветовое пространство : YUV
Субдискретизация насыщенности : 4:2:0
Битовая глубина : 8 бит
Тип развёртки : Чересстрочная
Порядок развёртки : Верхнее поле первое
Метод сжатия : С потерями
Бит/(Пиксели*Кадры) : 0.461
TimeCode_FirstFrame : 00:00:00:00
TimeCode_Source : Group of pictures header
Размер потока : 818 Мбайт (94%)
Аудио
Идентификатор : 192 (0xC0)
Формат : MPEG Audio
Версия формата : Version 1
Профиль формата : Layer 2
Продолжительность : 23 м.
Вид битрейта : Постоянный
Битрейт : 192 Кбит/сек
Каналы : 2 канала
Частота : 48,0 КГц
Метод сжатия : С потерями
Размер потока : 32,9 Мбайт (4%)

Скриншоты


Скриншоты анаморфированные


-705/687√
[teatrix.ru].t17045.torrent 
Торрент: Зарегистрирован [ 2016-03-17 00:40 ] · 636CCA5B5B5DB1514627FDB7D98A0D24E23483C4

Скачать .torrent

Скачать

17 KB

Статус: проверено
Скачан: 0 раз
Размер: 868 MB
terms.php



Показать сообщения:    

Текущее время: 09-Дек 20:31

Часовой пояс: UTC + 3


Вы не можете начинать темы
Вы не можете отвечать на сообщения
Вы не можете редактировать свои сообщения
Вы не можете удалять свои сообщения
Вы не можете голосовать в опросах
Вы не можете прикреплять файлы к сообщениям
Вы можете скачивать файлы