В актерской студии / Inside the actors studio (Jeff Wurtz) [2009-2014, ток-шоу, TVRip] Rus Sub


Статистика раздачи [Обновить пиров]
Размер:  15.13 GB   |    Зарегистрирован:  8 месяцев 18 дней   |    Скачан:  0 раз

Полного источника не было: Никогда

Личеров:  3  [  0 KB/s  ]   Подробная статистика пиров
 
   
 
 
 

[Цитировать]

В актерской студии / Inside the actors studio
Год выпуска: 2009-2014
Страна: США
Жанр: Ток-шоу
Продолжительность: ~00:45 (серия)
Перевод: Субтитры
Русские субтитры: есть
Режиссер: Jeff Wurtz
Описание: Ток-шоу "В актерской студии" - это известная программа кабельного телевидения, которая идет с 1994 годa, ее ведущий – Джеймс Липтон. Эта программа была создана как семинар для студентов Драматической школы Актерской студии (организации профессиональных актеров, режиссеров и драматургов, акцентирующей внимание на развитии и преподавании драматической игры, основанной на системе Станиславского). За время существования программы Липтон принимал в студии более 200 гостей – признанных актеров и режиссеров, готовых поделиться с молодежью опытом. Сама встреча со звездой длится обычно 3-4 часа, но в окончательный вариант для ТВ попадает около 45 мин. В раздачу включены эпизоды из 15-19 сезонов.
Релиз группы:
Доп. информация: Запись с канала "Аруц 8". Фильмы на английском языке с двойными субтитрами (вшитыми) на русском языке и иврите. Субтитры: Транс Тайтлс ЛТД.
Сэмпл: http://yadi.sk/d/e0lx2ir54Qvjg
качество: TVRip
формат: AVI
видеокодек: DivX
аудиокодек: MP3
Видео: 1300 Кbps, 704 х 432 (1.630), at 25.000 fps, MPEG-4 Visual (DivX 5) (Packed bitstream)(BVO
Аудио: 128 Kbps, 48.0 KHz, 2 channels, MPEG Audio (MP3) (Version 1) (Layer 3) (Joint stereo/MS Stereo)

Список серий

01. Дэнис Лири (Denis Leary)
02. Денни ДеВито (Danny DeVito)
03. Джудд Апатоу (Judd Apatow)
04. Джейсон Бейтман (Jason Bateman)
05. Гриффины (Family Guy) (Сериал)
06. Эми Полер (Amy Poehler)
07. Хилари Суонк (Hilary Swank)
08. Кейт Хадсон (Kate Hudson)
09. Бетти Уайт (Betty White)
10. Джеймс Франко (James Franco)
11. Американская семейка (Modern Family)
12. Микки Рурк (Mickey Rourke)
13. Бон Джови (Bon Jovi)
14. Джеймс Кэмерон (James Cameron)
15. Шон Комбс (Sean Combs)
16. Брэдли Купер (Bradley Cooper)
17. Джим Керри (Jim Carrey)
18. Колин Ферт (Colin Firth)
19. Дженнифер Энистон (Jennifer Aniston)
20. Лиам Нисон (Liam Neeson)
21. Джейк Джилленхол (Jake Gyllenhaal)
22. Тина Фей (Tina Fey)
23. Актеры сериала "Замедленное развитие" (Arrested Development)
24. Хью Джекман (Hugh Jackman)
25. 250-й спецвыпуск: часть 1 (The 250th Episode-1)
26. 250-й спецвыпуск: часть 2 (The 250th Episode-2)
27. Джеймс Гандолфини (James Gandolfini)
28. Брюс Дерн и Лаура Дерн (Bruce Dern y Laura Dern)
29. Джим Парсонс (Jim Parsons)
30. Эми Адамс (Amy Adams)
31. Сериал «Как я встретил вашу маму» (How I met your mother)
32. Нил Патрик Харрис (Neil Patrick Harris)
33. Маришка Харгитей (Mariska Hargitay)
34. Стинг (Sting)
35. Мэттью МакКонахи (Matthew McConaughey)

MediaInfo

General
Complete name : D:\Актерская студия\S16-03-Kate Hudson.avi
Format : AVI
Format/Info : Audio Video Interleave
File size : 455 MiB
Duration : 44mn 16s
Overall bit rate : 1 438 Kbps
Writing library : VirtualDub-MPEG2 build 24600/release
Video
ID : 0
Format : MPEG-4 Visual
Format settings, BVOP : 1
Format settings, QPel : No
Format settings, GMC : No warppoints
Format settings, Matrix : Default (H.263)
Muxing mode : Packed bitstream
Codec ID : DX50
Codec ID/Hint : DivX 5
Duration : 44mn 16s
Bit rate : 1 300 Kbps
Width : 704 pixels
Height : 432 pixels
Display aspect ratio : 1.630
Frame rate : 25.000 fps
Color space : YUV
Chroma subsampling : 4:2:0
Bit depth : 8 bits
Scan type : Progressive
Compression mode : Lossy
Bits/(Pixel*Frame) : 0.171
Stream size : 412 MiB (90%)
Writing library : DivX 6.8.5 (UTC 2009-08-20)
Audio
ID : 1
Format : MPEG Audio
Format version : Version 1
Format profile : Layer 3
Mode : Joint stereo
Mode extension : MS Stereo
Codec ID : 55
Codec ID/Hint : MP3
Duration : 44mn 16s
Bit rate mode : Constant
Bit rate : 128 Kbps
Channel(s) : 2 channels
Sampling rate : 48.0 KHz
Compression mode : Lossy
Stream size : 40.5 MiB (9%)
Alignment : Split accross interleaves
Interleave, duration : 40 ms (1.00 video frame)
Interleave, preload duration : 500 ms
Информация MI для серий 20-26 и последующих:

скрытый текст

General
Complete name : D:\Inside the actors studio\20-S19-01-Liam Neeson.avi
Format : AVI
Format/Info : Audio Video Interleave
File size : 460 MiB
Duration : 43mn 5s
Overall bit rate : 1 493 Kbps
Writing library : VirtualDub-MPEG2 build 24600/release
Video
ID : 0
Format : MPEG-4 Visual
Format profile : Advanced Simple@L5
Format settings, BVOP : 2
Format settings, QPel : No
Format settings, GMC : No warppoints
Format settings, Matrix : Default (MPEG)
Codec ID : XVID
Codec ID/Hint : XviD
Duration : 43mn 5s
Bit rate : 1 355 Kbps
Width : 704 pixels
Height : 432 pixels
Display aspect ratio : 1.630
Frame rate : 25.000 fps
Color space : YUV
Chroma subsampling : 4:2:0
Bit depth : 8 bits
Scan type : Progressive
Compression mode : Lossy
Bits/(Pixel*Frame) : 0.178
Stream size : 418 MiB (91%)
Writing library : XviD 58
Audio
ID : 1
Format : MPEG Audio
Format version : Version 1
Format profile : Layer 3
Mode : Joint stereo
Mode extension : MS Stereo
Codec ID : 55
Codec ID/Hint : MP3
Duration : 43mn 5s
Bit rate mode : Constant
Bit rate : 128 Kbps
Channel(s) : 2 channels
Sampling rate : 48.0 KHz
Compression mode : Lossy
Stream size : 39.4 MiB (9%)
Alignment : Split accross interleaves
Interleave, duration : 40 ms (1.00 video frame)
Interleave, preload duration : 500 ms

Скриншоты

[teatrix.ru].t17047.torrent 
Торрент: Зарегистрирован [ 2016-03-17 00:39 ] · 033086CDC86F9FC553FD4DB05BC4FBF4614EA4AF

Скачать .torrent

Скачать

23 KB

Статус: проверено
Скачан: 0 раз
Размер: 15.13 GB
terms.php



Показать сообщения:    

Текущее время: 04-Дек 23:24

Часовой пояс: UTC + 3


Вы не можете начинать темы
Вы не можете отвечать на сообщения
Вы не можете редактировать свои сообщения
Вы не можете удалять свои сообщения
Вы не можете голосовать в опросах
Вы не можете прикреплять файлы к сообщениям
Вы можете скачивать файлы