Доктор Кто: Снова о Докторах / Doctor Who: The Doctors Revisited / Сезон: 1 / Серии: 1-11 из 11 (Джеймс Брейлсфорд) [2013, фильм о фильме, TVRip] Original + Rus Subs (TrueTransLate)


Статистика раздачи [Обновить пиров]
Размер:  2.61 GB   |    Зарегистрирован:  8 месяцев 22 дня   |    Скачан:  0 раз

Полного источника не было: Никогда

Личеров:  3  [  0 KB/s  ]   Подробная статистика пиров
 
   
 
 
 

[Цитировать]

Доктор Кто: Снова о Докторах / Doctor Who: The Doctors Revisited
Год выпуска: 2013
Страна: Великобритания
Жанр: фильм о фильме
Продолжительность: 00:27:02
Перевод: Субтитры TrueTransLate
Русские субтитры: есть
Режиссёр: James Brailsford / Джеймс Брейлсфорд
В ролях: Дэвид Теннант, Нил Гейман, Джон Барроумэн, Стивен Моффат, Каро Скиннер, Питер Пёрвс и Уильям Рассел.
Описание: Одиннадцать спецвыпусков, приуроченных к 50-тилетнему юбилею "Доктора Кто". В каждой серии рассказывается о соответствующем Докторе, его спутниках и врагах, с которыми им пришлось сталкиваться.
Доп. информация: перевод группы TrueTransLate.
Переводчики: Little_Squirrel, Lori2014. Редактор перевода Little_Squirrel.
Ссылка на предыдущие и альтернативные раздачи: http://teatrix.ru/tracker.php?nm=The%20Doctors%20Revisited
Сэмпл: http://multi-up.com/860316
Качество: TVRip
Формат: AVI
Видео кодек: XviD
Аудио кодек: MP3
Видео: XviD, 640:352 (16:9), 25.000 fps, 1 208 Kbps, 0.214 Bits/(Pixel*Frame)
Аудио: MP3, 44.1 KHz, 2 channels, 128 Kbps

MediaInfo

General
Complete name : G:\The Doctors Revisited\The Doctors Revisited - The First Doctor.avi
Format : AVI
Format/Info : Audio Video Interleave
File size : 260 MiB
Duration : 27mn 2s
Overall bit rate : 1 345 Kbps
Writing application : VirtualDubMod 1.5.10.3 | www.virtualdub-fr.org || (build 2550/release)
Writing library : VirtualDubMod build 2550/release
Video
ID : 0
Format : MPEG-4 Visual
Format profile : Advanced Simple@L5
Format settings, BVOP : 2
Format settings, QPel : No
Format settings, GMC : No warppoints
Format settings, Matrix : Default (H.263)
Codec ID : XVID
Codec ID/Hint : XviD
Duration : 27mn 2s
Bit rate : 1 208 Kbps
Width : 640 pixels
Height : 352 pixels
Display aspect ratio : 16:9
Frame rate : 25.000 fps
Color space : YUV
Chroma subsampling : 4:2:0
Bit depth : 8 bits
Scan type : Progressive
Compression mode : Lossy
Bits/(Pixel*Frame) : 0.214
Stream size : 233 MiB (90%)
Writing library : XviD 65
Audio
ID : 1
Format : MPEG Audio
Format version : Version 1
Format profile : Layer 3
Codec ID : 55
Codec ID/Hint : MP3
Duration : 27mn 2s
Bit rate mode : Constant
Bit rate : 128 Kbps
Channel(s) : 2 channels
Sampling rate : 44.1 KHz
Compression mode : Lossy
Stream size : 24.8 MiB (10%)
Alignment : Split accross interleaves
Interleave, duration : 40 ms (1.00 video frame)
Interleave, preload duration : 500 ms
Writing library : LAME3.99r
Encoding settings : -m s -V 4 -q 0 -lowpass 17 -b 128

Скриншоты

[teatrix.ru].t17048.torrent 
Торрент: Зарегистрирован [ 2016-03-17 00:39 ] · AE887D8B274DDBB6B14B6BD564D842A693440D63

Скачать .torrent

Скачать

16 KB

Статус: проверено
Скачан: 0 раз
Размер: 2.61 GB
terms.php



Показать сообщения:    

Текущее время: 08-Дек 17:21

Часовой пояс: UTC + 3


Вы не можете начинать темы
Вы не можете отвечать на сообщения
Вы не можете редактировать свои сообщения
Вы не можете удалять свои сообщения
Вы не можете голосовать в опросах
Вы не можете прикреплять файлы к сообщениям
Вы можете скачивать файлы