История шедевров (Юлия Герра) [2007, Документальный, SATRip]


Статистика раздачи [Обновить пиров]
Размер:  328 MB   |    Зарегистрирован:  8 месяцев 22 дня   |    Скачан:  0 раз

Полного источника не было: Никогда

Личеров:  3  [  0 KB/s  ]   Подробная статистика пиров
 
   
 
 
 

[Цитировать]

История шедевров
Год выпуска: 2007
Страна: Россия
Жанр: Документальный
Продолжительность: 00:26:10
Перевод: Не требуется
Режиссер: Юлия Герра-Описание: В исторических зарисовках показана судьба Триумфальной арки и Московского манежа - архитектурных памятников, построенных в ознаменование победы в Отечественной войне 1812 года.-качество: SATRip
формат: AVI
видеокодек: XviD
аудиокодек: AC3
Видео: Xvid, 704x468 (3:2), 1549 Kbps, 25.00 fps
Аудио: Dolby AC3, 192kbps, 48000Hz stereo, 2 channels

MediaInfo

Общее
Полное имя : D:\Фильмы\Документальные\История шедевров.avi
Формат : AVI
Формат/Информация : Audio Video Interleave
Размер файла : 328 Мбайт
Продолжительность : 26 м.
Общий поток : 1751 Кбит/сек
Библиотека кодирования : VirtualDub build 32507/release
Видео
Идентификатор : 0
Формат : MPEG-4 Visual
Профиль формата : Advanced Simple@L5
Параметр BVOP формата : 2
Параметр QPel формата : Нет
Параметр GMC формата : Без точки перехода
Параметр матрицы формата : Default (H.263)
Режим смешивания : Сжатый битовый поток
Идентификатор кодека : XVID
Идентификатор кодека/Подсказка : XviD
Продолжительность : 26 м.
Битрейт : 1549 Кбит/сек
Ширина : 704 пикселя
Высота : 468 пикселей
Соотношение сторон : 3:2
Частота кадров : 25,000 кадров/сек
Цветовое пространство : YUV
Субдискретизация насыщенности : 4:2:0
Битовая глубина : 8 бит
Тип развёртки : Прогрессивная
Метод сжатия : С потерями
Бит/(Пиксели*Кадры) : 0.188
Размер потока : 290 Мбайт (88%)
Библиотека кодирования : XviD 64
Аудио
Идентификатор : 1
Формат : AC-3
Формат/Информация : Audio Coding 3
Расширение режима : CM (complete main)
Параметр Endianness формата : Big
Идентификатор кодека : 2000
Продолжительность : 26 м.
Вид битрейта : Постоянный
Битрейт : 192 Кбит/сек
Каналы : 2 канала
Расположение каналов : Front: L R
Частота : 48,0 КГц
Битовая глубина : 16 бит
Метод сжатия : С потерями
Размер потока : 36,0 Мбайт (11%)
Выравнивание : Соединение по промежуткам
Продолжительность промежутка : 40 мс. (1,00 видеокадр)
Время предзагрузки промежутка : 512 мс.

Скриншоты

[teatrix.ru].t17049.torrent 
Торрент: Зарегистрирован [ 2016-03-17 00:39 ] · 381C472CF1BEA0172242FFCB2A7EB1C72D1EAC22

Скачать .torrent

Скачать

13 KB

Статус: проверено
Скачан: 0 раз
Размер: 328 MB
terms.php



Быстрый ответ

Имя:

      
Для отправки сообщений необходимо включить JavaScript
Показать сообщения:    

Текущее время: 08-Дек 21:13

Часовой пояс: UTC + 3


Вы можете начинать темы
Вы можете отвечать на сообщения
Вы не можете редактировать свои сообщения
Вы не можете удалять свои сообщения
Вы не можете голосовать в опросах
Вы не можете прикреплять файлы к сообщениям
Вы можете скачивать файлы