Неугомонный - фильм про Руди Риччотти / L'orchidoclaste, Rudy Ricciotti vu par Laetitia Masson (Летиция Массон / Laetitia Masson) [2013, документальный, биография, архитектура, DVB] Original (Fre) + Sub (Rus, Eng, Fre, Deu)


Статистика раздачи [Обновить пиров]
Размер:  1.15 GB   |    Зарегистрирован:  8 месяцев 22 дня   |    Скачан:  0 раз

Полного источника не было: Никогда

Личеров:  3  [  0 KB/s  ]   Подробная статистика пиров
 
   
 
 
 

[Цитировать]

Неугомонный - фильм про Руди Риччотти
L'orchidoclaste, Rudy Ricciotti vu par Laetitia Masson- Год выпуска: 2013
Страна: Франция
Жанр: документальный, биография, архитектура
Продолжительность: 00:52:34
Перевод: Субтитры (перевод М.Кузиной, Éclair Group)
Русские субтитры: естьФормат субтитров: prerendered (IDX+SUB)
Доп. информация о субтитрах: русские, английские, французские, немецкие, нидерландские, румынские
Оригинальная аудиодорожка: французский
Режиссер: Летиция Массон / Laetitia Masson
Телеканал: TV5MONDE Europe
Описание: Руди Риччотти родился в Алжире в 1952 году. В 1975 году получил диплом архитектора в Женевской Школе инженеров, в 1980 закончил Марсельскую Школу архитектуры. Тогда же основал собственную мастерскую - сначала в Марселе, затем перевел ее в Бандоль. Среди проектов - по преимуществу, учреждения культуры, музеи, концертные залы, в основном, на территории Франции.
В фильме показана работа над строительством Музея цивилизаций Европы и Средиземноморья MuCEM в Марселе. Жюри отборочного конкурса единогласно предпочло предложение этого французского архитектора таким знаменитым финалистам, как Стивен Холл, Заха Хадид и Рем Колхас.
Риччотти отказался от модного дизайна из стали и стекла, вдохновляясь вместо этого видами старого Марселя и форта Сен-Жан, где будет располагаться музей. Бетонные листы трехсантиметровой толщины, с повышенной эластичностью и улучшенными эксплуатационными качествами определят внешний вид нового комплекса. Он будет состоять из двух частей: нового здания 16 метров в высоту и старого форта Сен-Жан, полностью реконструированного, соединенных легким мостом длиной 80 метров, уже получившим название "ковер-самолет".
Восточные ассоциации на этом не кончаются. Риччотти спроектировал нечто вроде вертикальной касбы - цитадели мусульманского города. Музей должен удачно вписаться в архитектурное окружение: он будет находиться у входа в старый марсельский порт и рядом с собором.
Доп. информация: Hot Bird (13.0°E) DVB-S

качество: DVB
формат: MKV
видеокодек: MPEG2
аудиокодек: MP2
Видео: MPEG Video 2, 720x576@1024x576 (16:9), 25 fps, ~2878 kbps avg, 0.278 bit/pixel
Аудио: MPEG Audio 2, 2 ch, 48 kHz, ~192.00 kbps avg - французский

MediaInfo

Общее
Уникальный идентификатор : 209352901545429739113278731333951546329 (0x9D7FE6F6C7C64409A1D1574E63F7E3D9)
Полное имя : F:\My Torrents 3\[apreder]L'orchidoclaste_Rudy_Ricciotti(2013)DVB.mkv
Формат : Matroska
Версия формата : Version 2
Размер файла : 1,15 Гбайт
Продолжительность : 52 м.
Режим общего битрейта : Переменный
Общий поток : 3132 Кбит/сек
Дата кодирования : UTC 2015-07-17 17:25:18
Программа кодирования : mkvmerge v8.1.0 ('Psychedelic Postcard') 64bit
Библиотека кодирования : libebml v1.3.1 + libmatroska v1.4.2
Attachements : cover.jpg / cover_small.jpg
Видео
Идентификатор : 1
Формат : MPEG Video
Версия формата : Version 2
Профиль формата : Main@Main
Параметр BVOP формата : Да
Параметр матрицы формата : Выборочная
Параметр GOP формата : Variable
Format_Settings_PictureStructure : Frame
Идентификатор кодека : V_MPEG2
Идентификатор кодека/Информация : MPEG 1 or 2 Video
Продолжительность : 52 м.
Вид битрейта : Переменный
Битрейт : 2878 Кбит/сек
Ширина : 720 пикселей
Высота : 576 пикселей
Соотношение сторон : 16:9
Режим частоты кадров : Постоянный
Частота кадров : 25,000 кадров/сек
Стандарт вещания : PAL
Цветовое пространство : YUV
Субдискретизация насыщенности : 4:2:0
Битовая глубина : 8 бит
Тип развёртки : Чересстрочная
Порядок развёртки : Верхнее поле первое
Метод сжатия : С потерями
Бит/(Пиксели*Кадры) : 0.278
Временной код первого кадра : 00:00:00:00
Оригинал временного кода : Group of pictures header
Размер потока : 1,06 Гбайт (92%)
Default : Да
Forced : Нет
Аудио
Идентификатор : 2
Формат : MPEG Audio
Версия формата : Version 1
Профиль формата : Layer 2
Идентификатор кодека : A_MPEG/L2
Идентификатор кодека/Подсказка : MP2
Продолжительность : 52 м.
Вид битрейта : Постоянный
Битрейт : 192 Кбит/сек
Каналы : 2 канала
Частота : 48,0 КГц
Метод сжатия : С потерями
Размер потока : 72,2 Мбайт (6%)
Язык : French
Default : Да
Forced : Нет
Текст #1
Идентификатор : 3
Формат : VobSub
Идентификатор кодека : S_VOBSUB
Идентификатор кодека/Информация : Picture based subtitle format used on DVDs
Язык : Russian
Default : Да
Forced : Нет
Текст #2
Идентификатор : 4
Формат : VobSub
Идентификатор кодека : S_VOBSUB
Идентификатор кодека/Информация : Picture based subtitle format used on DVDs
Язык : English
Default : Нет
Forced : Нет
Текст #3
Идентификатор : 5
Формат : VobSub
Идентификатор кодека : S_VOBSUB
Идентификатор кодека/Информация : Picture based subtitle format used on DVDs
Язык : French
Default : Нет
Forced : Нет
Текст #4
Идентификатор : 6
Формат : VobSub
Идентификатор кодека : S_VOBSUB
Идентификатор кодека/Информация : Picture based subtitle format used on DVDs
Язык : German
Default : Нет
Forced : Нет
Текст #5
Идентификатор : 7
Формат : VobSub
Идентификатор кодека : S_VOBSUB
Идентификатор кодека/Информация : Picture based subtitle format used on DVDs
Язык : Dutch
Default : Нет
Forced : Нет
Текст #6
Идентификатор : 8
Формат : VobSub
Идентификатор кодека : S_VOBSUB
Идентификатор кодека/Информация : Picture based subtitle format used on DVDs
Язык : Romanian
Default : Нет
Forced : Нет

Скриншоты


Резервные скриншоты


-[710]
[teatrix.ru].t17051.torrent 
Торрент: Зарегистрирован [ 2016-03-17 00:36 ] · 147E27490D5B8B6F52EDB5D2037654E95B153EB0

Скачать .torrent

Скачать

12 KB

Статус: проверено
Скачан: 0 раз
Размер: 1.15 GB
terms.php



Быстрый ответ

Имя:

      
Для отправки сообщений необходимо включить JavaScript
Показать сообщения:    

Текущее время: 08-Дек 03:14

Часовой пояс: UTC + 3


Вы можете начинать темы
Вы можете отвечать на сообщения
Вы не можете редактировать свои сообщения
Вы не можете удалять свои сообщения
Вы не можете голосовать в опросах
Вы не можете прикреплять файлы к сообщениям
Вы можете скачивать файлы