Дина Гарипова. Наш голос на "Евровидении" (Людмила Снигирева) [2013, Документальный, DVB]


Статистика раздачи [Обновить пиров]
Размер:  2.07 GB   |    Зарегистрирован:  10 месяцев 6 дней   |    Скачан:  0 раз

Полного источника не было: Никогда

Личеров:  3  [  0 KB/s  ]   Подробная статистика пиров
 
   
 
 
 

[Цитировать]

Дина Гарипова. Наш голос на "Евровидении"
Год выпуска: 2013
Страна: Россия
Студия: Первый канал
Жанр: Документальный
Продолжительность: 00:48:24
Перевод: Не требуется
Русские субтитры: нет
Режиссер: Людмила Снигирева
Описание: Евровидение. Самое популярное музыкальное событие года! 100 миллионов зрителей. 39 стран-участниц. Интрига, нарастающая до последних секунд! Сможет ли покорить Евровидение юная Дина Гарипова, которая представляет нашу страну? Какой сюрприз готовит она к финалу конкурса? Мы прошли с Диной все этапы подготовки к нему: работа над образом, постановка номера, съемка клипа, евро-тур – впервые на экране так откровенно раскрыта "кухня" Евровидения, все, что обычно остается за кадром – зритель увидит в нашем фильме. Мы расскажем о внутреннем устройстве конкурса, его закулисьи, интригах и даже настоящих боях, которые устраивают в гримерке соперники перед самым выходом на сцену, осветим спорные моменты в процедуре выбора победителя. Своими наблюдениями и опытом поделятся самые знаменитые участники Евровидения: Алла Пугачева, Филипп Киркоров, Дима Билан, Алсу, Юлия Волкова (ТАТУ), Алексей Воробьев, Юлия Савичева и участники групп, принимавших участие в конкурсе: "премьер Министр", "Серебро" и "Бурановские бабушки".
Доп. информация: Релиз -

Рип чистый. Без посторонних надписей. Выкладывается как есть.
Качество: DVB
Формат: MPG
Видео кодек: MPG2
Аудио кодек: MP2
Видео: 720x576 @ 1024x576 (16:9) 25.00fps 5 810 Kbps, 0.560 bit/pixel
Аудио: MPEG Audio 48000Hz stereo 192 Кбит/сек

Скриншоты


Скринлист

MI

General
Complete name : J:\ВЫКЛАДКА\DVB\01 - ДОКУМЕНТАЛЬНОЕ\Дина Гарипова. Наш голос на Евровидении (2013, Докуменатльный, DVB) (MYDIMKA).mpg
Format : MPEG-PS
File size : 2.07 GiB
Duration : 48mn 24s
Overall bit rate mode : Variable
Overall bit rate : 6 120 Kbps
Video
ID : 224 (0xE0)
Format : MPEG Video
Format version : Version 2
Format profile : Main@Main
Format settings, BVOP : Yes
Format settings, Matrix : Custom
Format settings, GOP : M=3, N=24
Duration : 48mn 24s
Bit rate mode : Variable
Bit rate : 5 806 Kbps
Maximum bit rate : 15.0 Mbps
Width : 720 pixels
Height : 576 pixels
Display aspect ratio : 16:9
Frame rate : 25.000 fps
Standard : PAL
Color space : YUV
Chroma subsampling : 4:2:0
Bit depth : 8 bits
Scan type : Interlaced
Scan order : Top Field First
Compression mode : Lossy
Bits/(Pixel*Frame) : 0.560
Time code of first frame : 00:00:00:00
Time code source : Group of pictures header
Stream size : 1.96 GiB (95%)
Audio
ID : 192 (0xC0)
Format : MPEG Audio
Format version : Version 1
Format profile : Layer 2
Duration : 48mn 24s
Bit rate mode : Constant
Bit rate : 192 Kbps
Channel(s) : 2 channels
Sampling rate : 48.0 KHz
Compression mode : Lossy
Delay relative to video : 17ms
Stream size : 66.5 MiB (3%)
[teatrix.ru].t17054.torrent 
Торрент: Зарегистрирован [ 2016-03-17 00:40 ] · D68DD3225CEDFB3F920B1F310FDED2321E4569D1

Скачать .torrent

Скачать

21 KB

Статус: проверено
Скачан: 0 раз
Размер: 2.07 GB
terms.php



Быстрый ответ

Имя:

      
Для отправки сообщений необходимо включить JavaScript
Показать сообщения:    

Текущее время: 24-Янв 00:01

Часовой пояс: UTC + 3


Вы можете начинать темы
Вы можете отвечать на сообщения
Вы не можете редактировать свои сообщения
Вы не можете удалять свои сообщения
Вы не можете голосовать в опросах
Вы не можете прикреплять файлы к сообщениям
Вы можете скачивать файлы