Классика рока / Пол Саймон / Альбом Graceland / Classic Albums: Paul Simon - Graceland (Джереми Марр / Jeremy Marre) [1997, Документальный, TVRip]


Статистика раздачи [Обновить пиров]
Размер:  742 MB   |    Зарегистрирован:  8 месяцев 21 день   |    Скачан:  0 раз

Полного источника не было: Никогда

Личеров:  3  [  0 KB/s  ]   Подробная статистика пиров
 
   
 
 
 

[Цитировать]

Классика рока / Пол Саймон / Альбом Graceland / Classic Albums: Paul Simon - Graceland
Год выпуска: 1997
Страна: США
Жанр: Документальный
Продолжительность: 00:59:14
Перевод: Одноголосый закадровый
Русские субтитры: нет
Режиссер: Джереми Марр / Jeremy Marre
-----------:
Philip Glass
Morris Goldberg
Whoopi Goldberg
Roy Halee
Don Johnson
Bakithi Kumalo
Ray Phiri
Chevy Chase
Joseph Shabalala
Paul Simon

Описание: Музыкант и певец Пол Саймон долгое время воспринимался слушателями только в паре со своим школьным приятелем Артом Гарфанкелом. Их дуэт покорял всевозможные хит-парады, а альбомы разлетались, как горячие пирожки. Но Полу хотелось попробовать что-нибудь новенькое, непохожее на стандартные популярные мелодии. И как-то раз, услышав запись южноафриканских музыкантов, он понял, что нашел то, что искал… Итогом стала поездка в Йоханнесбург и альбом «Graceland», который принес певцу очередную премию «Грэмми». Рассказ о создании этого необычного диска – в «Классике рока»!

Доп. информация: --
Сэмпл: http://sendfile.su/807003
качество: TVRip
формат: AVI
видеокодек: XviD
аудиокодек: AC3
Видео: Xvid 640x480 25.00fps 1542 Kbps Bits/Pixel 0.20
Аудио: Dolby AC3 48000Hz stereo 192kbps

MediaInfo

General
Complete name : H:\Classic Albums Paul Simon - Graceland 0504235138 ТВПарк Развлечений (02).avi
Format : AVI
Format/Info : Audio Video Interleave
File size : 742 MiB
Duration : 59mn 14s
Overall bit rate : 1 751 Kbps
Writing application : VirtualDubMod 1.5.10.3 | www.virtualdub-fr.org || (build 2550/release)
Writing library : VirtualDubMod build 2550/release
Video
ID : 0
Format : MPEG-4 Visual
Format profile : Advanced Simple@L5
Format settings, BVOP : 1
Format settings, QPel : No
Format settings, GMC : No warppoints
Format settings, Matrix : Default (H.263)
Codec ID : XVID
Codec ID/Hint : XviD
Duration : 59mn 14s
Bit rate : 1 549 Kbps
Width : 640 pixels
Height : 480 pixels
Display aspect ratio : 4:3
Frame rate : 25.000 fps
Color space : YUV
Chroma subsampling : 4:2:0
Bit depth : 8 bits
Scan type : Progressive
Compression mode : Lossy
Bits/(Pixel*Frame) : 0.202
Stream size : 657 MiB (88%)
Writing library : XviD 1.2.1 (UTC 2008-12-04)
Audio
ID : 1
Format : AC-3
Format/Info : Audio Coding 3
Mode extension : CM (complete main)
Format settings, Endianness : Big
Codec ID : 2000
Duration : 59mn 14s
Bit rate mode : Constant
Bit rate : 192 Kbps
Channel(s) : 2 channels
Channel positions : Front: L R
Sampling rate : 48.0 KHz
Bit depth : 16 bits
Compression mode : Lossy
Stream size : 81.4 MiB (11%)
Alignment : Split accross interleaves
Interleave, duration : 40 ms (1.00 video frame)
Interleave, preload duration : 500 ms

Скриншоты

[teatrix.ru].t17055.torrent 
Торрент: Зарегистрирован [ 2016-03-17 00:40 ] · AD184D8A50B1C57BAE4E37B40811FE963DC9F3C8

Скачать .torrent

Скачать

30 KB

Статус: проверено
Скачан: 0 раз
Размер: 742 MB
terms.php



Быстрый ответ

Имя:

      
Для отправки сообщений необходимо включить JavaScript
Показать сообщения:    

Текущее время: 07-Дек 13:41

Часовой пояс: UTC + 3


Вы можете начинать темы
Вы можете отвечать на сообщения
Вы не можете редактировать свои сообщения
Вы не можете удалять свои сообщения
Вы не можете голосовать в опросах
Вы не можете прикреплять файлы к сообщениям
Вы можете скачивать файлы