Кинопанорама от 8 декабря 1966 года. По страницам передач. 1966 год (Ксения Маринина) [1966, телепередача, DVB]


Статистика раздачи [Обновить пиров]
Размер:  1.96 GB   |    Зарегистрирован:  8 месяцев 23 дня   |    Скачан:  0 раз

Полного источника не было: Никогда

Личеров:  3  [  0 KB/s  ]   Подробная статистика пиров
 
   
 
 
 

[Цитировать]

Кинопанорама от 8 декабря 1966 года
По страницам передач. 1966 год- Год выпуска: 1966
Страна: СССР
Жанр: телепередача
Продолжительность: 00:55:09
Перевод: Не требуется
Русские субтитры: нет
Режиссер: Ксения МарининаВ ролях: Василий Шукшин, Юрий Яковлев, Ираклий Андроников, Сергей Герасимов, Галина Польских, Эльдар Рязанов, Евгений Евстигнеев, Евгений Леонов, Элина Быстрицкая, Владимир Белокуров, Серафима Бирман
Описание: Одна из самых любимых передач прошлого, на советском телевидении мало было таких программ, которые притягивали зрителя и не вызывали шквал ядовитой критики после ее окончания. Безусловно, интерес к ней был вызван тем, что она являлась путеводителем в мире большого кино – единственным путеводителем на телевидении, а, поскольку в стране фильмов снималось много, а по ТВ их показывали мало, походы в кинотеатр были излюбленным развлечением и времяпровождением граждан. Сейчас даже представить трудно – какие сумасшедшие очереди стояли в билетных кассах на премьерных показах новых фильмов, о которых уже заранее было известно, что они не могут не понравиться. И известно – как раз из "Кинопанорамы".
Программа позиционировалась как тележурнал, объединяя несколько сюжетов о кино. Разрабатывали ее редакторы М. Сперанская, Н. Карцева, К. Маринина и главный редактор киноредакции Центральной студии телевидения С.А. Кузнецов; разработчики понимали, что объединять сюжеты должен один ведущий, человек знающий и любящий кино, умеющий анализировать и брать интервью, давать свои, авторские, комментарии, хороший рассказчик. И желательно – узнаваемый. Первым ведущим стал Зиновий Герд, что сразу же принесло передаче популярность. 21 октября 1962 года страна познакомилось с программой, которая просуществует 33 года. До начала 1970-х передача выходила в прямом эфире. (Вокруг ТВ)
В этот выпуск вошли фрагменты "Кинопанорам" 1966 года.
Доп. информация: запись со спутника (канал "Ностальгия").
Сэмпл: http://multi-up.com/864576
Качество: DVB
Формат: MPEG-PS (См. при проблемах с просмотром видео)
Видео кодек: MPEG2
Аудио кодек: MP2
Видео: MPEG Video 2, 720x576@768x576 (4:3), 25 fps, ~4800 kbps avg, 0.463 bit/pixel
Аудио: 48 kHz, MPEG Audio 2, 2 ch, ~192.00 kbps avg

MediaInfo

Полное имя                               : H:\My Torrents\[apreder]Kinopanorama(08.12.1966)DVB.mpg
Формат : MPEG-PS
Размер файла : 1,96 Гбайт
Продолжительность : 55 м.
Режим общего битрейта : Переменный
Общий поток : 5093 Кбит/сек
Видео
Идентификатор : 224 (0xE0)
Формат : MPEG Video
Версия формата : Version 2
Профиль формата : Main@Main
Параметр BVOP формата : Да
Параметр матрицы формата : Выборочная
Параметр GOP формата : Variable
Продолжительность : 55 м.
Вид битрейта : Переменный
Битрейт : 4800 Кбит/сек
Ширина : 720 пикселей
Высота : 576 пикселей
Соотношение сторон : 4:3
Частота кадров : 25,000 кадров/сек
Стандарт вещания : PAL
Цветовое пространство : YUV
Субдискретизация насыщенности : 4:2:0
Битовая глубина : 8 бит
Тип развёртки : Чересстрочная
Порядок развёртки : Верхнее поле первое
Метод сжатия : С потерями
Бит/(Пиксели*Кадры) : 0.463
TimeCode_FirstFrame : 00:00:00:00
TimeCode_Source : Group of pictures header
Размер потока : 1,85 Гбайт (94%)
Аудио
Идентификатор : 192 (0xC0)
Формат : MPEG Audio
Версия формата : Version 1
Профиль формата : Layer 2
Продолжительность : 55 м.
Вид битрейта : Постоянный
Битрейт : 192 Кбит/сек
Каналы : 2 канала
Частота : 48,0 КГц
Метод сжатия : С потерями
Размер потока : 75,8 Мбайт (4%)

Скриншоты


Скриншоты анаморфированные


-735/717√
[teatrix.ru].t17070.torrent 
Торрент: Зарегистрирован [ 2016-03-17 00:43 ] · B61F54E20A04E52F46DB49589CF4F853FF7E6CE2

Скачать .torrent

Скачать

20 KB

Статус: проверено
Скачан: 0 раз
Размер: 1.96 GB
terms.php



Показать сообщения:    

Текущее время: 09-Дек 10:49

Часовой пояс: UTC + 3


Вы не можете начинать темы
Вы не можете отвечать на сообщения
Вы не можете редактировать свои сообщения
Вы не можете удалять свои сообщения
Вы не можете голосовать в опросах
Вы не можете прикреплять файлы к сообщениям
Вы можете скачивать файлы