(Medieval, Andalusi) Alfonso X el Sabio (1221-1284): Cantigas de Nuestro Senor / Musica Antigua, dir. Eduardo Paniagua - 2011, FLAC (image+.cue) lossless


 

[Цитировать]

Cantigas de Nuestro Señor
Alfonso X el Sabio (1221-1284)
Eduardo Paniagua
Жанр: Medieval, Andalusí
Страна-производитель диска: Spain
Год издания диска: 2011
Издатель (лейбл): Pneuma
Номер по каталогу: PN-1280
Дата записи: 2010
Аудиокодек: FLAC
Тип рипа: image+.cue
Битрейт аудио: lossless
Продолжительность: 56:46
Источник (релизер): форум старинной музыки (Boticario)
Наличие сканов в содержимом раздачи: да

Треклист

1. CSM 423 LA CREACIÓN DEL MUNDO. Como podemos a Deus gradeçer [9:02]
canto, salterio, cítara, flautas de caña y madera, pandero, gong, campanillas
2. CSM 424 EPIFANÍA. LA ADORACIÓN DE LOS REYES MAGOS. Pois que dos Reys [7:40]
canto, salterio, viola, flauta de caña, pandero
3. CSM 425 RESURRECCIÓN. Alegría, alegría [4:13]
canto, cítara, flauta de madera, darbuga, palmas y tar
4. CSM 426 ASCENSIÓN. Subiu ao ceo o Fillo de Deus [6:23]
canto, salterio, cítara y flautas de caña
5. CSM 427 ESPÍRITU SANTO. Todo-los bẽes que nos Deus [10:33]
canto, salterio, flauta de caña y canto difónico
6. CSM 406 LAS MAYAS. Ben vennas, Mayo [13:14]
canto, salterio y dos flautas de caña
7. CSM 403 LOS SIETE PESARES. Aver non poderia [5:40]
canto, salterio, pandero, darbuga y pandereta
CSM = Cantiga de Santa María (Numeradas por W. Mettmann)

Исполнители

MÚSICA ANTIGUA
Director: Eduardo Paniagua
Cesar Carazo: canto y viola
Luis Antonio Muñoz: canto
Eduardo Paniagua: salterio y coro
Alvaro Arturo: cítara
Antonio Olías: flauta de caña (shakuhachi) y canto difónico
Alfonso Tomás: flauta de amdera y campanillas
Alejandro León: pandero, gong, tar y palmas
David Mayoral: darbuga y pandereta (425 y 403)

log EAC

Exact Audio Copy V1.0 beta 3 from 29. August 2011
EAC extraction logfile from 1. May 2012, 0:48
Eduardo Paniagua / Alfonso X-Cantigas de nuestro Señor
Used drive : HL-DT-STBD-RE BH12LS30 Adapter: 0 ID: 0
Read mode : Secure
Utilize accurate stream : Yes
Defeat audio cache : Yes
Make use of C2 pointers : No
Read offset correction : 667
Overread into Lead-In and Lead-Out : No
Fill up missing offset samples with silence : Yes
Delete leading and trailing silent blocks : No
Null samples used in CRC calculations : Yes
Used interface : Native Win32 interface for Win NT & 2000
TOC of the extracted CD
Track | Start | Length | Start sector | End sector
---------------------------------------------------------
1 | 0:00.00 | 9:02.19 | 0 | 40668
2 | 9:02.19 | 7:40.25 | 40669 | 75193
3 | 16:42.44 | 4:13.14 | 75194 | 94182
4 | 20:55.58 | 6:23.10 | 94183 | 122917
5 | 27:18.68 | 10:32.65 | 122918 | 170382
6 | 37:51.58 | 13:14.21 | 170383 | 229953
7 | 51:06.04 | 5:40.27 | 229954 | 255480
Range status and errors
Selected range
Filename C:\Alfonso X-Cantigas de nuestro Señor-Eduardo Paniagua\Eduardo Paniagua - Alfonso X-Cantigas de nuestro Señor.wav
Peak level 98.7 %
Extraction speed 2.0 X
Range quality 100.0 %
Copy CRC A8EDC91B
Copy OK
No errors occurred
AccurateRip summary
Track 1 not present in database
Track 2 not present in database
Track 3 not present in database
Track 4 not present in database
Track 5 not present in database
Track 6 not present in database
Track 7 not present in database
None of the tracks are present in the AccurateRip database
End of status report
==== Log checksum F37E584DD1A13E83061D3D24ECA162A68B6271E7F125619DA7CD59991855294B ====

Audiochecker

AUDIOCHECKER v2.0 beta (build 457) - by Dester - opdester@freemail.hu
~~~~~~~~~~~~~~~~~~~~~~~~~~~~~~~~~~
Started at: четверг, 16. 05. 2013. - 20:41.41
1 file found
1 -===- E:\LOSSLESS\Eduardo Paniagua (2011) Cantigas de Nuestro Senor\Eduardo Paniagua - Cantigas de Nuestro Senor.flac
Extracted successfully
Conclusion: this track is CDDA with probability 100%
Tempfile successfully deleted.
Finished at: четверг, 16. 05. 2013. - 20:44.16 (operation time: 0:02.34)

AuSpectre

Доп. информация

Sonido: Hugo Westerdahl, 2010-2011, Axis-Madrid
Producción artística: Eduardo Paniagua
Grabación integral cantigas Alfonso X el Sabio bien cultural. Patrimonio inmaterial fundación de la Música Antígua
Portada: Miniatura Cantiga 140
Diseño gráfico: Pneuma
English translation: Lesley Ann Shuckburgh
Traducción poemas: José Filgueira, Luis Beltrán y Eduardo Paniagua



Показать сообщения:    

Текущее время: 21-Янв 11:37

Часовой пояс: UTC + 3


Вы не можете начинать темы
Вы не можете отвечать на сообщения
Вы не можете редактировать свои сообщения
Вы не можете удалять свои сообщения
Вы не можете голосовать в опросах
Вы не можете прикреплять файлы к сообщениям
Вы не можете скачивать файлы