Манускрипты в жизни английских королей / Illuminations: The Private Lives of Medieval Kings (Питер Свизи / Peter Sweasey) [2011, документальный, исторический, DVB] DVO (Ред Медиа)


Статистика раздачи [Обновить пиров]
Размер:  2.86 GB   |    Зарегистрирован:  8 месяцев 17 дней   |    Скачан:  0 раз

Полного источника не было: Никогда

Личеров:  3  [  0 KB/s  ]   Подробная статистика пиров
 
   
 
 
 

[Цитировать]

Манускрипты в жизни английских королей
Illuminations: The Private Lives of Medieval Kings- Год выпуска: 2011
Страна: Великобритания
Жанр: документальный, исторический
Продолжительность: 02:57:15
Перевод: Профессиональный (двухголосый закадровый) (ТПО "Ред Медиа")
Русские субтитры: нетРежиссер: Питер Свизи / Peter Sweasey
Описание: Вестминстерское аббатство издавна было тем местом, где пересекались божьи и королевские пути. На протяжении почти тысячи лет здесь короновали английских монархов. Царственные ритуалы хранят в себе отголоски средневекового мира. Но главное сокровище аббатства – это нечто, сокрытое в глубине, и почти недоступное постороннему глазу. Лишь редкий ученый может войти в Святилище – библиотеку аббатства.
Здесь хранится Либер Регалис / Liber Regalis – "Книга Корней". Это – такой же символ Британской монархии как скипетр, держава и корона. Она присутствовала на всех коронациях, начиная с правления Ричарда II в конце XIV века. Это синтез истории, искусства и религии. Иллюстрированный манускрипт всегда больше, чем книга. Он обладает огромной, почти мистической, силой. И для нас он может служить порталом в Затерянный мир средневековой монархии.
В этом цикле передач мы подробно изучим не только Либер Регалис, но и другие жемчужины иллюстрированных (иллюминированных) рукописей. Нам был дарован полный доступ к коллекции Королевских манускриптов Британской библиотеки. Мало кому удавалось видеть эти великолепные реликвии прошлого. Их изготавливали для королей. В них писали про королей. И читали их тоже короли. Мы будем исследовать мир, в котором создавались эти манускрипты. Это история монархии, охватывающая шесть столетий: от Англо-саксонской династии до династии Тюдоров. (из предисловия к фильму)
Доп. информация: запись со спутника (канал "365 дней"). В фильме 3 серии.
Информация: http://www.imdb.com/title/tt2171629/
Сэмпл: http://multi-up.com/867491
Качество: DVB
Формат: MPEG-PS (См. при проблемах с просмотром видео)
Видео кодек: MPEG2
Аудио кодек: MP2
Видео: MPEG Video 2, 720x576@768x576 (4:3), 25 fps, ~1942 kbps avg, ~0.187 bit/pixel
Аудио: 48 kHz, MPEG Audio 2, 2 ch, ~192.00 kbps avg

Список выпусков/ серийСерия 1: Правление по книге / Ruling By the Book

Продолжительность: 00:59:09
Описание: В этой серии рассказ начнется с первых королей, объединивших Англию. Каким образом манускрипты давали им божественную власть даже при наличии человеческих слабостей?

MediaInfo

Полное имя                               : H:\My Torrents\[apreder]The_Private_Lives_of_Medieval_Kings\[apreder]The_Private_Lives_of_Medieval_Kings_ep.1(2011)DVB.mpg
Формат : MPEG-PS
Размер файла : 922 Мбайт
Продолжительность : 59 м.
Режим общего битрейта : Переменный
Общий поток : 2177 Кбит/сек
Видео
Идентификатор : 224 (0xE0)
Формат : MPEG Video
Версия формата : Version 2
Профиль формата : Main@Main
Параметр BVOP формата : Да
Параметр матрицы формата : Выборочная
Параметр GOP формата : Variable
Продолжительность : 59 м.
Вид битрейта : Переменный
Битрейт : 1942 Кбит/сек
Ширина : 720 пикселей
Высота : 576 пикселей
Соотношение сторон : 4:3
Частота кадров : 25,000 кадров/сек
Стандарт вещания : PAL
Цветовое пространство : YUV
Субдискретизация насыщенности : 4:2:0
Битовая глубина : 8 бит
Тип развёртки : Чересстрочная
Порядок развёртки : Верхнее поле первое
Метод сжатия : С потерями
Бит/(Пиксели*Кадры) : 0.187
TimeCode_FirstFrame : 00:00:00:00
TimeCode_Source : Group of pictures header
Размер потока : 822 Мбайт (89%)
Аудио
Идентификатор : 192 (0xC0)
Формат : MPEG Audio
Версия формата : Version 1
Профиль формата : Layer 2
Продолжительность : 59 м.
Вид битрейта : Постоянный
Битрейт : 192 Кбит/сек
Каналы : 2 канала
Частота : 48,0 КГц
Метод сжатия : С потерями
Размер потока : 81,3 Мбайт (9%)

Скриншоты


Скриншоты анаморфированные


Серия 2: Что должен знать король / What a King Should Know

Продолжительность: 00:59:03
Описание: В этой серии мы узнаем, как благодаря манускриптам сформировался чисто английский образ монархии, самым ярким выразителем которой стал Король-воин Генрих V.

MediaInfo

Полное имя                               : H:\My Torrents\[apreder]The_Private_Lives_of_Medieval_Kings\[apreder]The_Private_Lives_of_Medieval_Kings_ep.2(2011)DVB.mpg
Формат : MPEG-PS
Размер файла : 1,06 Гбайт
Продолжительность : 59 м.
Режим общего битрейта : Переменный
Общий поток : 2571 Кбит/сек
Видео
Идентификатор : 224 (0xE0)
Формат : MPEG Video
Версия формата : Version 2
Профиль формата : Main@Main
Параметр BVOP формата : Да
Параметр матрицы формата : Выборочная
Параметр GOP формата : Variable
Продолжительность : 59 м.
Вид битрейта : Переменный
Битрейт : 2328 Кбит/сек
Ширина : 720 пикселей
Высота : 576 пикселей
Соотношение сторон : 4:3
Частота кадров : 25,000 кадров/сек
Стандарт вещания : PAL
Цветовое пространство : YUV
Субдискретизация насыщенности : 4:2:0
Битовая глубина : 8 бит
Тип развёртки : Чересстрочная
Порядок развёртки : Верхнее поле первое
Метод сжатия : С потерями
Бит/(Пиксели*Кадры) : 0.225
TimeCode_FirstFrame : 00:00:00:00
TimeCode_Source : Group of pictures header
Размер потока : 984 Мбайт (91%)
Аудио
Идентификатор : 192 (0xC0)
Формат : MPEG Audio
Версия формата : Version 1
Профиль формата : Layer 2
Продолжительность : 59 м.
Вид битрейта : Постоянный
Битрейт : 192 Кбит/сек
Каналы : 2 канала
Частота : 48,0 КГц
Метод сжатия : С потерями
Размер потока : 81,1 Мбайт (7%)

Скриншоты


Скриншоты анаморфированные


Серия 3: Библиотеки дали нам власть / Libraries Gave Us Power

Продолжительность: 00:59:03
Описание: В заключительной серии мы увидим последний этап расцвета иллюстрированных рукописей и узнаем, что они значили для династии Тюдоров. Это рассказ о трех королях, при которых Англия вышла из Средневековья и вступила в век Возрождения.

MediaInfo

Полное имя                               : H:\My Torrents\[apreder]The_Private_Lives_of_Medieval_Kings\[apreder]The_Private_Lives_of_Medieval_Kings_ep.3(2011)DVB.mpg
Формат : MPEG-PS
Размер файла : 919 Мбайт
Продолжительность : 59 м.
Режим общего битрейта : Переменный
Общий поток : 2175 Кбит/сек
Видео
Идентификатор : 224 (0xE0)
Формат : MPEG Video
Версия формата : Version 2
Профиль формата : Main@Main
Параметр BVOP формата : Да
Параметр матрицы формата : Выборочная
Параметр GOP формата : Variable
Продолжительность : 59 м.
Вид битрейта : Переменный
Битрейт : 1940 Кбит/сек
Ширина : 720 пикселей
Высота : 576 пикселей
Соотношение сторон : 4:3
Частота кадров : 25,000 кадров/сек
Стандарт вещания : PAL
Цветовое пространство : YUV
Субдискретизация насыщенности : 4:2:0
Битовая глубина : 8 бит
Тип развёртки : Чересстрочная
Порядок развёртки : Верхнее поле первое
Метод сжатия : С потерями
Бит/(Пиксели*Кадры) : 0.187
TimeCode_FirstFrame : 00:00:00:00
TimeCode_Source : Group of pictures header
Размер потока : 820 Мбайт (89%)
Аудио
Идентификатор : 192 (0xC0)
Формат : MPEG Audio
Версия формата : Version 1
Профиль формата : Layer 2
Продолжительность : 59 м.
Вид битрейта : Постоянный
Битрейт : 192 Кбит/сек
Каналы : 2 канала
Частота : 48,0 КГц
Метод сжатия : С потерями
Размер потока : 81,2 Мбайт (9%)

Скриншоты


Скриншоты анаморфированные


-

Внимание! Раздача ведётся путём добавления новых выпусков

Внимание! Раздача ведётся путём добавления новых выпусков; при каждом добавлении создаётся новый торрент. Чтобы начать докачку нового выпуска, пользователям необходимо сделать следующее:
(1) остановить скачивание,
(2) удалить старый торрент у себя из клиента (старые серии удалять не надо),
(3) скачать новый торрент и запустить его у себя в клиенте вместо старого, при этом указать клиенту путь в старую папку куда и должно происходить скачивание новых выпусков.
Ваш клиент при этом должен произвести хеширование (проверку) старой папки (если не производит сам - помогите ему сделать это). В результате он будет докачивать только те выпуски, которых у Вас ещё нет. Старые выпуски при этом не удаляются, а продолжают раздаваться!
Eсли Вы уже удалили старые выпуски, то предотвратить их повторную закачку можно, сняв галочки в соответствующих местах при запуске нового торрента. По возможности, желательно не удалять старые выпуски как можно дольше, чтобы релизёр не только продолжал раздавать старые выпуски, но и смог сконцентрироваться на новых.
-753/735√
[teatrix.ru].t17104.torrent 
Торрент: Зарегистрирован [ 2016-03-17 00:46 ] · 816BB9BD8307CEA35DD05DED289CE63B1645A5CE

Скачать .torrent

Скачать

15 KB

Статус: проверено
Скачан: 0 раз
Размер: 2.86 GB
terms.php



Быстрый ответ

Имя:

      
Для отправки сообщений необходимо включить JavaScript
Показать сообщения:    

Текущее время: 03-Дек 22:43

Часовой пояс: UTC + 3


Вы можете начинать темы
Вы можете отвечать на сообщения
Вы не можете редактировать свои сообщения
Вы не можете удалять свои сообщения
Вы не можете голосовать в опросах
Вы не можете прикреплять файлы к сообщениям
Вы можете скачивать файлы