(Classical, Vocal) Sumi Jo, James Conlon - Prayers (Mozart, Caccini, Faure, Schubert, Gounod, Strauss, Rossini, Schubert, Donizetti, Preisner, Bernstein, Ravel) - 2000, FLAC (image+.cue) lossless


 

[Цитировать]

Sumi Jo / James Conlon - Prayers
Жанр: Classical, Vocal
Страна-производитель диска: Korea
Год издания диска: 2000
Издатель (лейбл): Warner Music (Erato)
Номер по каталогу: 8574-89269-2
Аудиокодек: FLAC
Тип рипа: image+.cue
Битрейт аудио: lossless
Продолжительность: 61:36
Источник: собственный рип
Наличие сканов в содержимом раздачи: нет
Треклист:
01. [Anonymous] Sometimes I Feel Like a Motherless Child (Spiritual)
02. [Giulio Caccini] Ave Maria (arr. Steven Mercurio)
03. [Wolfgang Amadeus Mozart] Laudate Dominum / Vesperae Solennes de Confessore K 339
04. [Gabriel Faure] Pie Jesu / Requiem
05. [Anonymous] Amazing Grace (Traditional)
06. [Frederick Loewe, Alan Jay Lerner] Say A Prayer for me Tonight / Gigi
07. [Charles Gounod] Sanctus / Messe Solennelle en L'honneur de Sainte Cecile
08. [Franz Schubert] Ave Maria
09. [Richard Strauss] Breit' über Mein Haupt / Op. 19 No. 2
10. [Giocchino Rossini] L'ora Fatal S'appressa... Giusto Ciel / L'assedio de Corinto (Pamira)
11. [Franz Schbert] Gott! Höre Meine Stimme! / Der Vierjahrige Posten D 190 (Kathchen)
12. [Gaetano Dinizetti] Preghiera di Maria / Maria Stuarda
13. [Johann Strauss II, Ralph Benayzky] Non's Chorus / Laura's Song / Casanova
14. [Zbigniew Preisner] Lacrimosa / Requiem for My Friend
15. [Leonard Bernstein] Take Care of This House 1600 Pennysylvania Avenia (Abigail Adams & Little Lud)
16. [Maurice Ravel] Kaddisch / Deux Mélodies Hébraïques
Исполнители:
Sumi Jo: soprano
Sussan Graham: mezzo-soprano (15)
Philharmonischer Chor Koln: Prof. Horst Meinardus (3, 7, 10, 12, 13, 14)
Gürzenich-Orchester Kölner Philharmoniker
James Conlon: conductor and piano (1, 9)

Лог создания рипа

Exact Audio Copy V1.0 beta 3 from 29. August 2011
EAC extraction logfile from 22. May 2013, 14:52
Sumi Jo / Prayers
Used drive : PIONEER DVD-RW DVR-105 Adapter: 0 ID: 1
Read mode : Secure
Utilize accurate stream : Yes
Defeat audio cache : Yes
Make use of C2 pointers : No
Read offset correction : 48
Overread into Lead-In and Lead-Out : No
Fill up missing offset samples with silence : Yes
Delete leading and trailing silent blocks : No
Null samples used in CRC calculations : Yes
Used interface : Native Win32 interface for Win NT & 2000
Used output format : User Defined Encoder
Selected bitrate : 1024 kBit/s
Quality : High
Add ID3 tag : No
Command line compressor : C:\Program Files\Exact Audio Copy\Flac\flac.exe
Additional command line options : -V -6 %source% -o %dest%
TOC of the extracted CD
Track | Start | Length | Start sector | End sector
---------------------------------------------------------
1 | 0:00.00 | 3:22.55 | 0 | 15204
2 | 3:22.55 | 3:59.45 | 15205 | 33174
3 | 7:22.25 | 4:04.07 | 33175 | 51481
4 | 11:26.32 | 3:23.03 | 51482 | 66709
5 | 14:49.35 | 2:42.22 | 66710 | 78881
6 | 17:31.57 | 2:46.25 | 78882 | 91356
7 | 20:18.07 | 5:27.70 | 91357 | 115951
8 | 25:46.02 | 4:16.53 | 115952 | 135204
9 | 30:02.55 | 2:00.60 | 135205 | 144264
10 | 32:03.40 | 6:25.60 | 144265 | 173199
11 | 38:29.25 | 5:18.67 | 173200 | 197116
12 | 43:48.17 | 3:42.48 | 197117 | 213814
13 | 47:30.65 | 3:28.05 | 213815 | 229419
14 | 50:58.70 | 3:28.35 | 229420 | 245054
15 | 54:27.30 | 2:59.62 | 245055 | 258541
16 | 57:27.17 | 4:09.20 | 258542 | 277236
Range status and errors
Selected range
Filename E:\WORKING\Sumi Jo - Prayers.wav
Peak level 95.6 %
Extraction speed 6.8 X
Range quality 99.9 %
Test CRC 43943D18
Copy CRC 43943D18
Copy OK
No errors occurred
AccurateRip summary
Track 1 not present in database
Track 2 not present in database
Track 3 not present in database
Track 4 not present in database
Track 5 not present in database
Track 6 not present in database
Track 7 not present in database
Track 8 not present in database
Track 9 not present in database
Track 10 not present in database
Track 11 not present in database
Track 12 not present in database
Track 13 not present in database
Track 14 not present in database
Track 15 not present in database
Track 16 not present in database
None of the tracks are present in the AccurateRip database
End of status report
==== Log checksum 7C2F85F79C3FC5B65C0E778214A12EB67BF2D790D6D35C56926CEEE403950A47 ====

Содержание индексной карты (.CUE)

REM GENRE Classical
REM DATE 2000
REM DISCID CE0E7010
REM COMMENT "ExactAudioCopy v1.0b3"
PERFORMER "Sumi Jo"
TITLE "Prayers"
FILE "Sumi Jo - Prayers.flac" WAVE
TRACK 01 AUDIO
TITLE "[Anonymous] Sometimes I feel like a motherless child"
PERFORMER "Sumi Jo"
INDEX 01 00:00:00
TRACK 02 AUDIO
TITLE "[Giulio Caccini] Ave Maria"
PERFORMER "Sumi Jo"
INDEX 00 03:19:07
INDEX 01 03:22:55
TRACK 03 AUDIO
TITLE "[Mozart] Laudate Dominum - Vesperae solennes de Confessore K339"
PERFORMER "Sumi Jo"
INDEX 00 07:19:37
INDEX 01 07:22:25
TRACK 04 AUDIO
TITLE "[Gabriel Faure'] Pie Jesu - Requiem"
PERFORMER "Sumi Jo"
INDEX 00 11:22:57
INDEX 01 11:26:32
TRACK 05 AUDIO
TITLE "[Anonymous] Amazing Grace"
PERFORMER "Sumi Jo"
INDEX 00 14:44:70
INDEX 01 14:49:35
TRACK 06 AUDIO
TITLE "[Frederick Loewe, Alan Jay Lerner] Say a prayer for me tonight - Gigi"
PERFORMER "Sumi Jo"
INDEX 00 17:28:15
INDEX 01 17:31:57
TRACK 07 AUDIO
TITLE "[Charles Gounod] Santus - Messe solennelle en l'honneur de sainte Ce'cile"
PERFORMER "Sumi Jo"
INDEX 00 20:14:62
INDEX 01 20:18:07
TRACK 08 AUDIO
TITLE "[Schubert] Ave Maria"
PERFORMER "Sumi Jo"
INDEX 00 25:42:47
INDEX 01 25:46:02
TRACK 09 AUDIO
TITLE "[R. Strauss] Breit' ueber mein Haupt Op2 no2"
PERFORMER "Sumi Jo"
INDEX 00 29:59:55
INDEX 01 30:02:55
TRACK 10 AUDIO
TITLE "[Gioachino Rossini] L'ora fatal s'appressa... Giusto ciel - L'assedio di Corinto"
PERFORMER "Sumi Jo"
INDEX 00 32:00:10
INDEX 01 32:03:40
TRACK 11 AUDIO
TITLE "[Schubert] Gott! Hore meine Stimme! - Der vierjaehrige Posten D190"
PERFORMER "Sumi Jo"
INDEX 00 38:25:52
INDEX 01 38:29:25
TRACK 12 AUDIO
TITLE "[Gaetano Donizetti] Preghiera di Maria - Maria Stuarda"
PERFORMER "Sumi Jo"
INDEX 00 43:45:32
INDEX 01 43:48:17
TRACK 13 AUDIO
TITLE "[J. Strauss II, Ralph Benatzky] Nun's Chorus, Laura's song - Casanova"
PERFORMER "Sumi Jo"
INDEX 00 47:28:05
INDEX 01 47:30:65
TRACK 14 AUDIO
TITLE "[Zbigniew Preisner] Lacrimosa - Requiem for my friend"
PERFORMER "Sumi Jo"
INDEX 00 50:56:70
INDEX 01 50:58:70
TRACK 15 AUDIO
TITLE "[Leonard Bernstein] Take care of this house - 1600 Pennsylvania Avenue"
PERFORMER "Sumi Jo"
INDEX 00 54:24:17
INDEX 01 54:27:30
TRACK 16 AUDIO
TITLE "[Maurice Ravel] Kaddisch - Deux Melodies Hebraiques"
PERFORMER "Sumi Jo"
INDEX 00 57:24:70
INDEX 01 57:27:17

CUETools Log

[CUETools log; Date: 2013-05-22 오후 6:39:08; Version: 2.1.4]
[CTDB TOCID: _nAf21qB.s2KuhavcKnl5x2KeCk-] found.
Track | CTDB Status
1 | (2/2) Accurately ripped
2 | (2/2) Accurately ripped
3 | (2/2) Accurately ripped
4 | (2/2) Accurately ripped
5 | (2/2) Accurately ripped
6 | (2/2) Accurately ripped
7 | (2/2) Accurately ripped
8 | (2/2) Accurately ripped
9 | (2/2) Accurately ripped
10 | (2/2) Accurately ripped
11 | (2/2) Accurately ripped
12 | (2/2) Accurately ripped
13 | (2/2) Accurately ripped
14 | (2/2) Accurately ripped
15 | (2/2) Accurately ripped
16 | (2/2) Accurately ripped
[AccurateRip ID: 0023805b-01ada3f9-ce0e7010] disk not present in database.
Track Peak [ CRC32 ] [W/O NULL] [ LOG ]
-- 95.6 [43943D18] [9AEA86DF] CRC32
01 78.4 [3F779CB9] [E9A4FE85]
02 91.7 [CF5334A2] [96E70934]
03 84.2 [96BE08BD] [BDD516E6]
04 86.5 [329F489B] [604A2E71]
05 95.6 [5B7730E7] [A0EBF879]
06 89.7 [E6C1105E] [286403A9]
07 91.7 [55BCB237] [1475D336]
08 56.3 [AD29BC71] [E99809ED]
09 82.6 [C92158F7] [8CD52A6D]
10 83.0 [7E0CF064] [D98E87E2]
11 91.7 [BF96C1CC] [67973794]
12 95.0 [03EACD13] [39AF187B]
13 90.6 [D6729809] [142B92A8]
14 90.4 [031F04ED] [AF2767DA]
15 85.5 [68A8FF22] [1D42CCD7]
16 89.6 [FB2B43D5] [56AE9614]



Показать сообщения:    

Текущее время: 08-Дек 07:09

Часовой пояс: UTC + 3


Вы не можете начинать темы
Вы не можете отвечать на сообщения
Вы не можете редактировать свои сообщения
Вы не можете удалять свои сообщения
Вы не можете голосовать в опросах
Вы не можете прикреплять файлы к сообщениям
Вы не можете скачивать файлы