Евгений Мартынов. Последний романтик [2009, Документальный, SATRip]


Статистика раздачи [Обновить пиров]
Размер:  392 MB   |    Зарегистрирован:  10 месяцев 7 дней   |    Скачан:  0 раз

Полного источника не было: Никогда

Личеров:  3  [  0 KB/s  ]   Подробная статистика пиров
 
   
 
 
 

[Цитировать]

Евгений Мартынов. Последний романтик
Год выпуска: 2009
Производство: ООО «Спутник»
Жанр: Документальный
Продолжительность: 00:38:41
Перевод: Не требуется
Русские субтитры: нет
Описание: Он был лицом советской эстрады за рубежом и символом прогрессивной молодежи в Советском Союзе. Как это удавалось человеку, который ни при каких обстоятельствах не интересовался политикой и никогда не пел "правильных" песен?
Как мальчик из глубинки смог всего за пару лет завоевать суровый эстрадный олимп 70-х, сломив упорное сопротивление мэтров? Сегодня его мелодии звучат на всех престижных концертных площадках - как будто и не было нескольких лет забвения, стоивших ему жизни...
О феномене человека, всегда остававшегося самим собой, рассуждают друзья, члены семьи, коллеги, композиторы, поэты-песенники: Лев Лещенко, Иосиф Кобзон, Николай Басков, Ренат Ибрагимов, Георгий Мовсесян, Илья Резник, генеральный директор "Союзконцерта" Николай Бутов, друг Евгения Мартынова Георгий Лебедянский и брат - Юрий Мартынов.

качество: SATRip
формат: AVI
Видео: Xvid 704x384 (16:9) 25.0 fps Bit rate 1248Kbps Bits/(Pixel*Frame) 0.185
Аудио: MP3 48.0 KHz 2ch 160kbps

MediaInfo

General
Complete name : E:\torrent\Евгений Мартынов. Последний романтик.avi
Format : AVI
Format/Info : Audio Video Interleave
File size : 392 MiB
Duration : 38mn 41s
Overall bit rate : 1 418 Kbps
Writing library : VirtualDub build 32842/release
Video
ID : 0
Format : MPEG-4 Visual
Format profile : Advanced Simple@L5
Format settings, BVOP : Yes
Format settings, QPel : No
Format settings, GMC : No warppoints
Format settings, Matrix : Default (H.263)
Codec ID : XVID
Codec ID/Hint : XviD
Duration : 38mn 41s
Bit rate : 1 248 Kbps
Width : 704 pixels
Height : 384 pixels
Display aspect ratio : 16:9
Frame rate : 25.000 fps
Color space : YUV
Chroma subsampling : 4:2:0
Bit depth : 8 bits
Scan type : Progressive
Bits/(Pixel*Frame) : 0.185
Stream size : 345 MiB (88%)
Writing library : XviD 1.2.1 (UTC 2008-12-04)
Audio
ID : 1
Format : MPEG Audio
Format version : Version 1
Format profile : Layer 3
Mode : Joint stereo
Codec ID : 55
Codec ID/Hint : MP3
Duration : 38mn 41s
Bit rate mode : Constant
Bit rate : 160 Kbps
Channel(s) : 2 channels
Sampling rate : 48.0 KHz
Stream size : 44.3 MiB (11%)
Alignment : Split accross interleaves
Interleave, duration : 40 ms (1.00 video frame)
Interleave, preload duration : 500 ms

Скриншоты

[teatrix.ru].t17109.torrent 
Торрент: Зарегистрирован [ 2016-03-17 00:46 ] · ED13114D3C638B83D21DAAC755324B9A68649A88

Скачать .torrent

Скачать

16 KB

Статус: проверено
Скачан: 0 раз
Размер: 392 MB
terms.php



Быстрый ответ

Имя:

      
Для отправки сообщений необходимо включить JavaScript
Показать сообщения:    

Текущее время: 24-Янв 12:13

Часовой пояс: UTC + 3


Вы можете начинать темы
Вы можете отвечать на сообщения
Вы не можете редактировать свои сообщения
Вы не можете удалять свои сообщения
Вы не можете голосовать в опросах
Вы не можете прикреплять файлы к сообщениям
Вы можете скачивать файлы