(Classical, Renaissance, madrigal) Carlo Gesualdo - Madrigals Book 2 - Delitiae Musicae, Marco Longhini - 2010, FLAC (image+.cue) lossless


 

[Цитировать]

Carlo Gesualdo - Madrigals Book 2 - Delitiae Musicae, Marco Longhini
Жанр: Classical, Renaissance, madrigal
Год издания диска: 2010
Издатель (лейбл): Naxos
Номер по каталогу: 8.570549
Дата записи: 2007
Аудиокодек: FLAC
Тип рипа: image+.cue
Битрейт аудио: lossless
Продолжительность: 57:12
Источник: собственный рип
Наличие сканов в содержимом раздачи: да
Треклист:
Carlo Gesualdo da Venosa (1566-1613)
Madrigals Book 2
[1] Caro amoroso neo (part 1)
[2] Ma se tale ha costei (part 2)
[3] Hai rotto e sciolto
[4] Se per lieve ferita (part 1)
[5] Che sentir deve il petto (part 2)
[6] In piu leggiadro velo
[7] Se cosi dolce e il duolo (part 1)
[8] Ma se avverra ch'io moia (part 2)
[9] Se taccio, il duol s'avanza
[10] O come e gran martire (part 1)
[11] O mio soave ardore (part 2)
[12] Sento che nel partire
[13] Non e questa la mano (part 1)
[14] Ne tien face o saetta (part 2)
[15] Candida man qual neve
[16] Dalle odorate spoglie (part 1)
[17] E quell'arpa felice (part 2)
[18] Non mai cangero stato
[19] All'apparir di quelle luci
[20] Non mi toglia il ben mio
Instrumental compositions
[21] Canzon francese del Principe
[22] Gagliarda del Principe di Venosa
Исполнители:
Delitiæ Musicæ
Marco Longhini

Лог создания рипа

Exact Audio Copy V1.0 beta 3 from 29. August 2011
EAC extraction logfile from 7. May 2013, 21:11
Delitiae Musicae, Marco Longhini / Gesualdo - Madrigals Book 2
Used drive : HL-DT-STDVDRAM GSA-4083N Adapter: 1 ID: 0
Read mode : Secure
Utilize accurate stream : Yes
Defeat audio cache : Yes
Make use of C2 pointers : No
Read offset correction : 667
Overread into Lead-In and Lead-Out : No
Fill up missing offset samples with silence : Yes
Delete leading and trailing silent blocks : No
Null samples used in CRC calculations : Yes
Used interface : Native Win32 interface for Win NT & 2000
Used output format : User Defined Encoder
Selected bitrate : 896 kBit/s
Quality : High
Add ID3 tag : No
Command line compressor : C:\Program Files\Exact Audio Copy\Flac\flac.exe
Additional command line options : -V -8 %source%
TOC of the extracted CD
Track | Start | Length | Start sector | End sector
---------------------------------------------------------
1 | 0:00.00 | 2:09.26 | 0 | 9700
2 | 2:09.26 | 2:03.61 | 9701 | 18986
3 | 4:13.12 | 3:17.17 | 18987 | 33778
4 | 7:30.29 | 2:03.72 | 33779 | 43075
5 | 9:34.26 | 2:50.36 | 43076 | 55861
6 | 12:24.62 | 2:05.24 | 55862 | 65260
7 | 14:30.11 | 1:20.39 | 65261 | 71299
8 | 15:50.50 | 2:43.18 | 71300 | 83542
9 | 18:33.68 | 2:30.53 | 83543 | 94845
10 | 21:04.46 | 1:57.45 | 94846 | 103665
11 | 23:02.16 | 1:27.15 | 103666 | 110205
12 | 24:29.31 | 4:12.45 | 110206 | 129150
13 | 28:42.01 | 1:23.46 | 129151 | 135421
14 | 30:05.47 | 2:48.51 | 135422 | 148072
15 | 32:54.23 | 3:35.25 | 148073 | 164222
16 | 36:29.48 | 1:15.71 | 164223 | 169918
17 | 37:45.44 | 1:46.67 | 169919 | 177935
18 | 39:32.36 | 2:54.19 | 177936 | 191004
19 | 42:26.55 | 2:40.08 | 191005 | 203012
20 | 45:06.63 | 2:06.54 | 203013 | 212516
21 | 47:13.42 | 6:24.61 | 212517 | 241377
22 | 53:38.28 | 3:32.03 | 241378 | 257280
Range status and errors
Selected range
Filename J:\New Music\Gesualdo - Madrigals Book 2\Gesualdo - Madrigals Book 2.wav
Peak level 98.0 %
Extraction speed 4.2 X
Range quality 100.0 %
Test CRC 0836C601
Copy CRC 0836C601
Copy OK
No errors occurred
End of status report
==== Log checksum D087A208F350DF45ECCB851F0DF09048A0C12FCCB702298D2674803C7EE5E0BA ====



Показать сообщения:    

Текущее время: 10-Дек 06:09

Часовой пояс: UTC + 3


Вы не можете начинать темы
Вы не можете отвечать на сообщения
Вы не можете редактировать свои сообщения
Вы не можете удалять свои сообщения
Вы не можете голосовать в опросах
Вы не можете прикреплять файлы к сообщениям
Вы не можете скачивать файлы