(Medieval, Renaissance, Baroque) V. Comnen, M. Romano, G. Puliti, T. Cecchini, J. Skjavetic, A. Petric, A. Motovunjanin, V. Jelic, I. Lukacic - Journey Through Dalmatia / Ensemble Renaissance - 1999, FLAC (image+.cue) lossless


 

[Цитировать]

Journey Through Dalmatia
the Music of ancient Adriatic from the 13th to the 18th century
Ensemble Renaissance
Жанр: Medieval, Renaissance, Baroque
Страна-производитель диска: Serbia
Год издания диска: 1999
Издатель (лейбл): Al Segno
Номер по каталогу: as 2024 2
Дата записи: 1998
Аудиокодек: FLAC
Тип рипа: image+.cue
Битрейт аудио: lossless
Продолжительность: 68:34
Источник (релизер): форум старинной музыки (wdilbert)
Наличие сканов в содержимом раздачи: да

Треклист

Anonymous, Hvar, 16th century
01. Kada mi se Radosave vojevoda... (When Radosav the Duke was leaving me...) [2:04]
02. I klice devojka (And so cheers the maiden) [2:16]
Anonymous, Vis, 16th century
03. Staracki ples (Elder's dance) [1:15]
Anonymous, Hvar, 16th century
04. Cry no more (Depiction «The Tormenting of Our Savior») [2:26]
05. Break; heart! [1:58]
Anonymous, Dubrovnik, 18th century
06. Contradanza «Sievaca - Kala Mother» [1:57]
07. Contradanza «Raguza» [1:52]
08. Contradanza «The Victory» [2:53]
Vicenzo Comnen (1590-1667)
09. Madrigal: «Vaghe ninfe...» (1 voice) [5:17]
10. Madrigal: «Vaghe ninfe...» (2 voices) [2:07]
11. Madrigal: «Vaghe ninfe...» (3 voices) [2:07]
Marcantonio Romano (17th century)
12. Madrigal: «Mori mi dite» [1:57]
Gabriello Puliti (ca. 1575-after 1641)
13. Madrigal: «Donna ingrata» [2:27]
Tomaso Cecchini (1580-1644)
14. Madrigal: «Homai, che qunita e l'hora» [3:36]
15. Madrigal: «All' aura d'un dolcissima sospiro» [2:56]
16. Madrigal: «Rosa d'amor» [2:05]
Julije Skjavetić (16th century)
17. Greghesca: «Giathu tanda fandiga» [1:27]
18. Greghesca: «Deh' no far» [1:33]
Andrija Petrić (16th century)
19. Madrigal: «Son quest'l bei crin d'oro» [2:35]
Andrija Motovunjanin (15-16th century)
20. Frotolla «Vale iniqua...» [2:15]
Vinko Jelić (1596-ca. 1636)
21. Spiritual concert «Bone Jesu» [3:21]
Ivan Lukačić (1574/84-1648)
22. Motet: «Cantabo Domino» [2:18]
23. Motet: «Benedic Domino» [1:59]
24. Motet: «Orantibus in loco isto» [1:46]
Tomaso Cecchini
25. Sonata No. 2 [3:12]
26. Motet: «Exuitate Dei» [1:31]
27. Sonata No. 8 [2:26]
Codex S. Mariae Jadrensis (12-13th century)
28. Sanctus [2:07]
Codex Evangeliarum Jadrense (12th century)
29. Lauda «Exaudi Christe» [2:51]

Исполнители

ENSEMBLE RENAISSANCE
Ljudmila Gross - soprano
Predrag Djoković - countertenor
Ljubomir Dimitrijević - recorders, rauschenpfeife, gemshorn, hirtenschalmei
Georges Grujić - recorders, rauschenpfeife, dulcian, cornamuse
Dragan Mladjenović - voice, recorders, rauschenpfeife, cornamuse
Miomir Ristić - voice, viola da gamba, fidel, rauschenpfeife, cornamuse
Zoran Kostadinović - renaissance violin
Darko Karajić - lute, baglama
Miroslav Marković - voice
Ljubica Grujić - spinet, organ
Tea Dimitrijević - spinet, organ
Danijela Dejanović - spinet, organ
Veljko Nicolić - percussions

log EAC

Exact Audio Copy V1.0 beta 3 from 29. August 2011
EAC extraction logfile from 25. May 2012, 19:43
Ensemble Renaissance / Journey through Dalmatia
Used drive : ATAPI iHAS624 B Adapter: 0 ID: 0
Read mode : Secure
Utilize accurate stream : Yes
Defeat audio cache : No
Make use of C2 pointers : No
Read offset correction : 6
Overread into Lead-In and Lead-Out : No
Fill up missing offset samples with silence : Yes
Delete leading and trailing silent blocks : No
Null samples used in CRC calculations : Yes
Used interface : Native Win32 interface for Win NT & 2000
Used output format : User Defined Encoder
Selected bitrate : 768 kBit/s
Quality : High
Add ID3 tag : No
Command line compressor : C:\Program Files (x86)\Exact Audio Copy\FLAC\FLAC.EXE
Additional command line options : -8 -V -T "ARTIST=%artist%" -T "TITLE=%title%" -T "ALBUM=%albumtitle%" -T "DATE=%year%" -T "TRACKNUMBER=%tracknr%" -T "GENRE=%genre%" -T "COMMENT=%comment%" -T "BAND=%albuminterpret%" -T "ALBUMARTIST=%albuminterpret%" -T "COMPOSER=%composer%" %haslyrics%--tag-from-file=LYRICS="%lyricsfile%"%haslyrics% -T "DISCNUMBER=%cdnumber%" -T "TOTALDISCS=%totalcds%" -T "TOTALTRACKS=%numtracks%" %hascover%--picture="%coverfile%"%hascover% %source% -o %dest%
TOC of the extracted CD
Track | Start | Length | Start sector | End sector
---------------------------------------------------------
1 | 0:00.00 | 2:04.35 | 0 | 9334
2 | 2:04.35 | 2:15.64 | 9335 | 19523
3 | 4:20.24 | 1:15.06 | 19524 | 25154
4 | 5:35.30 | 2:26.34 | 25155 | 36138
5 | 8:01.64 | 1:58.07 | 36139 | 44995
6 | 9:59.71 | 1:56.60 | 44996 | 53755
7 | 11:56.56 | 1:52.12 | 53756 | 62167
8 | 13:48.68 | 2:52.69 | 62168 | 75136
9 | 16:41.62 | 5:16.61 | 75137 | 98897
10 | 21:58.48 | 2:07.23 | 98898 | 108445
11 | 24:05.71 | 2:07.19 | 108446 | 117989
12 | 26:13.15 | 1:56.57 | 117990 | 126746
13 | 28:09.72 | 2:26.49 | 126747 | 137745
14 | 30:36.46 | 3:35.50 | 137746 | 153920
15 | 34:12.21 | 2:55.68 | 153921 | 167113
16 | 37:08.14 | 2:04.65 | 167114 | 176478
17 | 39:13.04 | 1:26.38 | 176479 | 182966
18 | 40:39.42 | 1:32.40 | 182967 | 189906
19 | 42:12.07 | 2:35.26 | 189907 | 201557
20 | 44:47.33 | 2:15.02 | 201558 | 211684
21 | 47:02.35 | 3:21.01 | 211685 | 226760
22 | 50:23.36 | 2:18.35 | 226761 | 237145
23 | 52:41.71 | 1:58.73 | 237146 | 246068
24 | 54:40.69 | 1:45.42 | 246069 | 253985
25 | 56:26.36 | 3:11.46 | 253986 | 268356
26 | 59:38.07 | 1:31.35 | 268357 | 275216
27 | 61:09.42 | 2:26.11 | 275217 | 286177
28 | 63:35.53 | 2:07.06 | 286178 | 295708
29 | 65:42.59 | 2:50.69 | 295709 | 308527
Range status and errors
Selected range
Filename D:\EAC\Ensemble Renaissance - Journey through Dalmatia.wav
Peak level 99.9 %
Extraction speed 14.4 X
Range quality 100.0 %
Copy CRC 65C103A8
Copy OK
No errors occurred
AccurateRip summary
Track 1 accurately ripped (confidence 1) [D3BE1627] (AR v1)
Track 2 accurately ripped (confidence 1) [78336A8A] (AR v1)
Track 3 accurately ripped (confidence 1) [F45BF224] (AR v1)
Track 4 accurately ripped (confidence 1) [E7B98311] (AR v1)
Track 5 accurately ripped (confidence 1) [4611DE39] (AR v1)
Track 6 accurately ripped (confidence 1) [9FD217D4] (AR v1)
Track 7 accurately ripped (confidence 1) [40EAC3C8] (AR v1)
Track 8 accurately ripped (confidence 1) [DF8AD6D8] (AR v1)
Track 9 accurately ripped (confidence 1) [88E3B4C7] (AR v1)
Track 10 accurately ripped (confidence 1) [1862740B] (AR v1)
Track 11 accurately ripped (confidence 1) [90AA0E87] (AR v1)
Track 12 accurately ripped (confidence 1) [12E5B302] (AR v1)
Track 13 accurately ripped (confidence 1) [216A5D74] (AR v1)
Track 14 accurately ripped (confidence 1) [F239B04C] (AR v1)
Track 15 accurately ripped (confidence 1) [48DFCD69] (AR v1)
Track 16 accurately ripped (confidence 1) [C6C48DD0] (AR v1)
Track 17 accurately ripped (confidence 1) [7AE9CFA4] (AR v1)
Track 18 accurately ripped (confidence 1) [0A747BCC] (AR v1)
Track 19 accurately ripped (confidence 1) [7D7EDE72] (AR v1)
Track 20 accurately ripped (confidence 1) [45CDE864] (AR v1)
Track 21 accurately ripped (confidence 1) [EA534A22] (AR v1)
Track 22 accurately ripped (confidence 1) [09998D4D] (AR v1)
Track 23 accurately ripped (confidence 1) [97629F4B] (AR v1)
Track 24 accurately ripped (confidence 1) [CAFC940D] (AR v1)
Track 25 accurately ripped (confidence 1) [A4843C87] (AR v1)
Track 26 accurately ripped (confidence 1) [8A41BE5C] (AR v1)
Track 27 accurately ripped (confidence 1) [C94D1E7D] (AR v1)
Track 28 accurately ripped (confidence 1) [FA213D1F] (AR v1)
Track 29 accurately ripped (confidence 1) [1D17F19D] (AR v1)
All tracks accurately ripped
End of status report
---- CUETools DB Plugin V2.1.3
[CTDB TOCID: RYzwjSjYJGCfZoDYM3zO31g1.cg-] disk not present in database, Submit result: RYzwjSjYJGCfZoDYM3zO31g1.cg- has been uploaded
==== Log checksum A6141889E972DFCEFBA0B01F506F1F44E61BC050161C9BE3C5783D5A37CF0FA5 ====

Audiochecker

AUDIOCHECKER v2.0 beta (build 457) - by Dester - opdester@freemail.hu
~~~~~~~~~~~~~~~~~~~~~~~~~~~~~~~~~~
Started at: вторник, 21. 05. 2013. - 9:29.28
1 file found
1 -===- E:\LOSSLESS\Ensemble Renaissance (1999) Journey Through Dalmatia\Ensemble Renaissance - Journey Through Dalmatia.flac
Extracted successfully
Conclusion: this track is CDDA with probability 100%
Tempfile successfully deleted.
Finished at: вторник, 21. 05. 2013. - 9:32.46 (operation time: 0:03.17)

AuSpectre

Доп. информация

Prepared and arranged by Ljubomir Dimitrijević
"special thanks" to:
Church Svetog Petra, Mrs. Ksenija Jovanović, Zorana, Kaja, Peroven, Mario
musical producer: Miomir Ristić
sound engineer: Zoran Jerković
design: M4-Media, Münster



Показать сообщения:    

Текущее время: 04-Дек 23:23

Часовой пояс: UTC + 3


Вы не можете начинать темы
Вы не можете отвечать на сообщения
Вы не можете редактировать свои сообщения
Вы не можете удалять свои сообщения
Вы не можете голосовать в опросах
Вы не можете прикреплять файлы к сообщениям
Вы не можете скачивать файлы