Театр, в котором не играют. Театр.doc (Юрий Поскакухин) [2011, Документальный, DVB]


Статистика раздачи [Обновить пиров]
Размер:  1.12 GB   |    Зарегистрирован:  8 месяцев 25 дней   |    Скачан:  0 раз

Полного источника не было: Никогда

Личеров:  3  [  0 KB/s  ]   Подробная статистика пиров
 
   
 
 
 

[Цитировать]

Театр, в котором не играют. Театр.doc- Год выпуска: 2011
Страна: Россия
Жанр: Документальный
Продолжительность: 00:39:03
Перевод: Не требуется-Режиссер: Юрий Поскакухин-Описание: Фильм рассказывает об одном из самых самобытных явлений российской культуры последнего десятилетия - Театре.doc, о феномене театральной техники "verbatim" и об особенностях этого театрального проекта, который стал площадкой для яркого проявления таких ныне заметных в художественной жизни страны фигур, как Михаил Дурненков, Максим Курочкин, Иван Вырыпаев и др.-В фильме принимают участие: режиссеры М. Угаров, М. Захаров, Г. Жено, Е. Гришковец, драматурги Е. Гремина, М. Дурненков и др.-Качество: DVB-IPTV
Формат: MPEG-PS
Видео: MPEG-2, 720x576@768x576 (4/3), 25 fps, ~3827 Kbps (0.369 bit/pixel)
Аудио: MP2, 48 KHz, 2 ch, 192 Kbps-

MediaInfo

General
Complete name : ...\Театр, в котором не играют. Театр.doc (2011) [DVB-IPTV].mpg
Format : MPEG-PS
File size : 1.12 GiB
Duration : 39mn 2s
Overall bit rate mode : Variable
Overall bit rate : 4 101 Kbps
Writing library : (c) 1998-2012 Womble Multimedia, Inc. / MPEG Video Wizard DVD 5.0.1.100 (03/2011) / Sep 7 2012
Video
ID : 224 (0xE0)
Format : MPEG Video
Format version : Version 2
Format profile : Main@Main
Format settings, BVOP : Yes
Format settings, Matrix : Custom
Format settings, GOP : Variable
Duration : 39mn 2s
Bit rate mode : Variable
Bit rate : 3 827 Kbps
Maximum bit rate : 15.0 Mbps
Width : 720 pixels
Height : 576 pixels
Display aspect ratio : 4:3
Frame rate : 25.000 fps
Standard : PAL
Color space : YUV
Chroma subsampling : 4:2:0
Bit depth : 8 bits
Scan type : Interlaced
Scan order : Top Field First
Compression mode : Lossy
Bits/(Pixel*Frame) : 0.369
Time code of first frame : 00:00:00:00
Time code source : Group of pictures header
Stream size : 1.04 GiB (93%)
Writing library : (c) 1998-2012 Womble Multimedia, Inc. / MPEG Video Wizard DVD 5.0.1.100 (03/2011) / Sep 7 2012
Audio
ID : 192 (0xC0)
Format : MPEG Audio
Format version : Version 1
Format profile : Layer 2
Duration : 39mn 2s
Bit rate mode : Constant
Bit rate : 192 Kbps
Channel(s) : 2 channels
Sampling rate : 48.0 KHz
Compression mode : Lossy
Delay relative to video : -80ms
Stream size : 53.6 MiB (5%)
[teatrix.ru].t17119.torrent 
Торрент: Зарегистрирован [ 2016-03-17 00:46 ] · B36DCAACCA2C75B47CEF5E93EC29CB8CB2EBAD2A

Скачать .torrent

Скачать

12 KB

Статус: проверено
Скачан: 0 раз
Размер: 1.12 GB
terms.php



Быстрый ответ

Имя:

      
Для отправки сообщений необходимо включить JavaScript
Показать сообщения:    

Текущее время: 11-Дек 16:53

Часовой пояс: UTC + 3


Вы можете начинать темы
Вы можете отвечать на сообщения
Вы не можете редактировать свои сообщения
Вы не можете удалять свои сообщения
Вы не можете голосовать в опросах
Вы не можете прикреплять файлы к сообщениям
Вы можете скачивать файлы