(Classical, Renaissance, madrigal) Carlo Gesualdo - Madrigals Book 3 - Delitiae Musicae, Marco Longhini - 2011, FLAC (image+.cue) lossless


 

[Цитировать]

Carlo Gesualdo - Madrigals Book 3 - Delitiae Musicae, Marco Longhini
Жанр: Classical, Renaissance, madrigal
Год издания диска: 2011
Издатель (лейбл): Naxos
Номер по каталогу: 8.572136
Дата записи: 2008
Аудиокодек: FLAC
Тип рипа: image+.cue
Битрейт аудио: lossless
Продолжительность: 68:37
Источник: собственный рип
Наличие сканов в содержимом раздачи: да
Треклист:
Carlo Gesualdo da Venosa (1566-1613)
Madrigals Book 3
[1] Voi volete ch'io mora (part 1)
[2] Moro o non moro (part 2)
[3] Ahi, disperata vita
[4] Languisco e moro
[5] Del bel de' bei vostri occhi
[6] Ahi, dispietata e cruda
[7] Dolce spirto d'amore
[8] Sospirava il mio core (part 1)
[9] O mal nati messaggi (part 2)
[10] Veggio, sì, dal mio sole
[11] Non t'amo, o voce ingrata
[12] Meraviglia d'amore (part 1)
[13] Ed ardo e vivo (part 2)
[14] Crudelissima doglia
[15] Se piange, ohimè, la donna del mio core
[16] Ancidetemi pur, grievi martiri
[17] Se vi miro pietosa
[18] Deh, se già fu crudele
[19] Dolcissimo sospiro
[20] Donna se m'ancidete (a sei voci)
Bonus tracks
[21] Come vivi cor mio (canzonetta)
[22] All'ombra degli allori (canzonetta)
Исполнители:
Delitiæ Musicæ
Marco Longhini

Лог создания рипа

Exact Audio Copy V1.0 beta 3 from 29. August 2011
EAC extraction logfile from 8. May 2013, 21:14
Delitiae Musicae, Marco Longhini / Gesualdo - Madrigals Book 3
Used drive : HL-DT-STDVDRAM GSA-4083N Adapter: 1 ID: 0
Read mode : Secure
Utilize accurate stream : Yes
Defeat audio cache : Yes
Make use of C2 pointers : No
Read offset correction : 667
Overread into Lead-In and Lead-Out : No
Fill up missing offset samples with silence : Yes
Delete leading and trailing silent blocks : No
Null samples used in CRC calculations : Yes
Used interface : Native Win32 interface for Win NT & 2000
Used output format : User Defined Encoder
Selected bitrate : 896 kBit/s
Quality : High
Add ID3 tag : No
Command line compressor : C:\Program Files\Exact Audio Copy\Flac\flac.exe
Additional command line options : -V -8 %source%
TOC of the extracted CD
Track | Start | Length | Start sector | End sector
---------------------------------------------------------
1 | 0:00.00 | 1:32.02 | 0 | 6901
2 | 1:32.02 | 3:05.59 | 6902 | 20835
3 | 4:37.61 | 2:13.63 | 20836 | 30873
4 | 6:51.49 | 4:55.60 | 30874 | 53058
5 | 11:47.34 | 2:35.24 | 53059 | 64707
6 | 14:22.58 | 3:34.34 | 64708 | 80791
7 | 17:57.17 | 3:33.61 | 80792 | 96827
8 | 21:31.03 | 2:45.09 | 96828 | 109211
9 | 24:16.12 | 3:17.56 | 109212 | 124042
10 | 27:33.68 | 2:37.59 | 124043 | 135876
11 | 30:11.52 | 2:49.45 | 135877 | 148596
12 | 33:01.22 | 1:16.13 | 148597 | 154309
13 | 34:17.35 | 2:00.55 | 154310 | 163364
14 | 36:18.15 | 3:34.29 | 163365 | 179443
15 | 39:52.44 | 3:55.07 | 179444 | 197075
16 | 43:47.51 | 3:54.11 | 197076 | 214636
17 | 47:41.62 | 2:40.13 | 214637 | 226649
18 | 50:22.00 | 2:40.12 | 226650 | 238661
19 | 53:02.12 | 3:52.59 | 238662 | 256120
20 | 56:54.71 | 3:00.28 | 256121 | 269648
21 | 59:55.24 | 4:36.69 | 269649 | 290417
22 | 64:32.18 | 4:02.57 | 290418 | 308624
Range status and errors
Selected range
Filename J:\New Music\Gesualdo - Madrigals Book 3\Gesualdo - Madrigals Book 3.wav
Peak level 100.0 %
Extraction speed 4.3 X
Range quality 100.0 %
Test CRC E0F30C8A
Copy CRC E0F30C8A
Copy OK
No errors occurred
End of status report
==== Log checksum C8AD4E7DAC66DB243F66FB8AC4B35B96320A4DC8EC927288DEF2BD233F8A9192 ====



Показать сообщения:    

Текущее время: 10-Дек 13:51

Часовой пояс: UTC + 3


Вы не можете начинать темы
Вы не можете отвечать на сообщения
Вы не можете редактировать свои сообщения
Вы не можете удалять свои сообщения
Вы не можете голосовать в опросах
Вы не можете прикреплять файлы к сообщениям
Вы не можете скачивать файлы