Кинопанорама. Февральский выпуск 1991 года (Ксения Маринина) [1991, телепередача, DVB]


Статистика раздачи [Обновить пиров]
Размер:  3.12 GB   |    Зарегистрирован:  10 месяцев 7 дней   |    Скачан:  0 раз

Полного источника не было: Никогда

Личеров:  3  [  0 KB/s  ]   Подробная статистика пиров
 
   
 
 
 

[Цитировать]

Кинопанорама
Февральский выпуск 1991 года- Год выпуска: 1991
Страна: СССР
Жанр: телепередача
Продолжительность: 01:27:40 (00:42:28 + 00:45:12)
Перевод: Не требуется
Русские субтитры: нет
Режиссер: Ксения МарининаВ ролях: Виктор Мережко, Григорий Чухрай, Фанни Ардан, Педро Альмодовар, Эсперансо Кампусанто, Геннадий Хазанов, Инна Чурикова, Николай Рыбников (архивные кадры), Алла Сурикова, Татьяна Васильева, Гарри Бардин, Вячеслав Криштофович
Описание: Одна из самых любимых передач прошлого, на советском телевидении мало было таких программ, которые притягивали зрителя и не вызывали шквал ядовитой критики после ее окончания. Безусловно, интерес к ней был вызван тем, что она являлась путеводителем в мире большого кино – единственным путеводителем на телевидении, а, поскольку в стране фильмов снималось много, а по ТВ их показывали мало, походы в кинотеатр были излюбленным развлечением и времяпровождением граждан. Сейчас даже представить трудно – какие сумасшедшие очереди стояли в билетных кассах на премьерных показах новых фильмов, о которых уже заранее было известно, что они не могут не понравиться. И известно – как раз из "Кинопанорамы". (Вокруг ТВ)
Этот выпуск передачи начнется с рассказа о московских кинотеатрах, специализирующихся на кинематографе определенных стран. Кинотеатр "Мир" на Цветном бульваре (ныне Киноконцертный зал "Мир") стал совместным предприятием с французской группой Paris Média и намеревается быть своеобразной витриной французского кино, а в кинотеатре "Художественный" открылся фестиваль испанских фильмов.
Будет представлен фильм "Ребро Адама". Разговор с Геннадием Хазановым. Сюжет, посвященный памяти Николая Рыбникова (1930-1990). На съемочной площадке фильма "Чокнутые" режиссера Аллы Суриковой. Встреча с актрисой Татьяной Васильевой и сюжет на съемочной площадке фильма "Коктейль - Мираж". Рассказ режиссера-мультипликатора Гарри Бардина о себе и своих работах.
Доп. информация: запись со спутника (канал "Ностальгия").
Сэмпл: http://multi-up.com/869057
Качество: DVB
Формат: MPEG-PS (См. при проблемах с просмотром видео)
Видео кодек: MPEG2
Аудио кодек: MP2
Видео: MPEG Video 2, 720x576@768x576 (4:3), 25 fps, ~4800 kbps avg, 0.463 bit/pixel
Аудио: 48 kHz, MPEG Audio 2, 2 ch, ~192.00 kbps avg

MediaInfo

Полное имя                               : H:\My Torrents\[apreder]Kinopanorama(February_1991)\[apreder]Kinopanorama_Pt.1(February_1991)DVB.mpg
Формат : MPEG-PS
Размер файла : 1,51 Гбайт
Продолжительность : 42 м.
Режим общего битрейта : Переменный
Общий поток : 5093 Кбит/сек
Видео
Идентификатор : 224 (0xE0)
Формат : MPEG Video
Версия формата : Version 2
Профиль формата : Main@Main
Параметр BVOP формата : Да
Параметр матрицы формата : Выборочная
Параметр GOP формата : Variable
Продолжительность : 42 м.
Вид битрейта : Переменный
Битрейт : 4800 Кбит/сек
Ширина : 720 пикселей
Высота : 576 пикселей
Соотношение сторон : 4:3
Частота кадров : 25,000 кадров/сек
Стандарт вещания : PAL
Цветовое пространство : YUV
Субдискретизация насыщенности : 4:2:0
Битовая глубина : 8 бит
Тип развёртки : Чересстрочная
Порядок развёртки : Верхнее поле первое
Метод сжатия : С потерями
Бит/(Пиксели*Кадры) : 0.463
TimeCode_FirstFrame : 00:00:00:00
TimeCode_Source : Group of pictures header
Размер потока : 1,42 Гбайт (94%)
Аудио
Идентификатор : 192 (0xC0)
Формат : MPEG Audio
Версия формата : Version 1
Профиль формата : Layer 2
Продолжительность : 42 м.
Вид битрейта : Постоянный
Битрейт : 192 Кбит/сек
Каналы : 2 канала
Частота : 48,0 КГц
Метод сжатия : С потерями
Размер потока : 58,3 Мбайт (4%)
Общее
Полное имя : H:\My Torrents\[apreder]Kinopanorama(February_1991)\[apreder]Kinopanorama_Pt.2(February_1991)DVB.mpg
Формат : MPEG-PS
Размер файла : 1,61 Гбайт
Продолжительность : 45 м.
Режим общего битрейта : Переменный
Общий поток : 5093 Кбит/сек
Видео
Идентификатор : 224 (0xE0)
Формат : MPEG Video
Версия формата : Version 2
Профиль формата : Main@Main
Параметр BVOP формата : Да
Параметр матрицы формата : Выборочная
Параметр GOP формата : Variable
Продолжительность : 45 м.
Вид битрейта : Переменный
Битрейт : 4800 Кбит/сек
Ширина : 720 пикселей
Высота : 576 пикселей
Соотношение сторон : 4:3
Частота кадров : 25,000 кадров/сек
Стандарт вещания : PAL
Цветовое пространство : YUV
Субдискретизация насыщенности : 4:2:0
Битовая глубина : 8 бит
Тип развёртки : Чересстрочная
Порядок развёртки : Верхнее поле первое
Метод сжатия : С потерями
Бит/(Пиксели*Кадры) : 0.463
TimeCode_FirstFrame : 00:00:00:00
TimeCode_Source : Group of pictures header
Размер потока : 1,52 Гбайт (94%)
Аудио
Идентификатор : 192 (0xC0)
Формат : MPEG Audio
Версия формата : Version 1
Профиль формата : Layer 2
Продолжительность : 45 м.
Вид битрейта : Постоянный
Битрейт : 192 Кбит/сек
Каналы : 2 канала
Частота : 48,0 КГц
Метод сжатия : С потерями
Размер потока : 62,1 Мбайт (4%)

Скриншоты


Скриншоты анаморфированные


-760/742√
[teatrix.ru].t17122.torrent 
Торрент: Зарегистрирован [ 2016-03-17 00:49 ] · 7F56713C104B0B7D54F78B9D6A81AA84619D5ECC

Скачать .torrent

Скачать

16 KB

Статус: проверено
Скачан: 0 раз
Размер: 3.12 GB
terms.php



Показать сообщения:    

Текущее время: 25-Янв 00:21

Часовой пояс: UTC + 3


Вы не можете начинать темы
Вы не можете отвечать на сообщения
Вы не можете редактировать свои сообщения
Вы не можете удалять свои сообщения
Вы не можете голосовать в опросах
Вы не можете прикреплять файлы к сообщениям
Вы можете скачивать файлы