(Classical, Renaissance, madrigal) Carlo Gesualdo - Madrigals Book 4 - Delitiae Musicae, Marco Longhini - 2012, FLAC (image+.cue) lossless


 

[Цитировать]

Carlo Gesualdo - Madrigals Book 4 - Delitiae Musicae, Marco Longhini
Жанр: Classical, Renaissance, madrigal
Год издания диска: 2012
Издатель (лейбл): Naxos
Номер по каталогу: 8.572137
Дата записи: 2009
Аудиокодек: FLAC
Тип рипа: image+.cue
Битрейт аудио: lossless
Продолжительность: 68:59
Источник: собственный рип
Наличие сканов в содержимом раздачи: да
Треклист:
Carlo Gesualdo da Venosa (1566-1613)
Madrigals Book 4
[1] Luci serene e chiare
[2] Tal'hor sano desio
[3] Io tacero, ma nel silenzio mio (part 1)
[4] Invan, dunque, o crudele (part 2)
[5] Che fai meco, mio cor
[6] Questa crudele e pia
[7] Hor che in gioia (part 1)
[8] O sempre crudo amore (part 2)
[9] Cor mio, deh, non piangete (part 1)
[10] Dunque non m'offendete (part 2)
[11] (Luzzasco Luzzaschi: Toccata del IV tono)
[12] Sparge la morte al mio Signor
[13] Moro, e mentre sospiro (part 1)
[14] Quando di lui la sospirata vita (part 2)
[15] Mentre gira costei
[16] A voi, mentre il mio core
[17] Ecco, moriro dunque (part 1)
[18] Ahi, gia mi discoloro (part 2)
[19] Arde il mio cor
[20] Se chiudete nel cor
[21] Il sol qual or piu splende (a sei voci - part 1)
[22] Volgi mia luce (a sei voci - part 2)
Исполнители:
Delitiæ Musicæ
Marco Longhini

Лог создания рипа

Exact Audio Copy V1.0 beta 3 from 29. August 2011
EAC extraction logfile from 9. May 2013, 1:46
Delitiae Musicae, Marco Longhini / Gesualdo - Madrigals Book 4
Used drive : HL-DT-STDVDRAM GSA-4083N Adapter: 1 ID: 0
Read mode : Secure
Utilize accurate stream : Yes
Defeat audio cache : Yes
Make use of C2 pointers : No
Read offset correction : 667
Overread into Lead-In and Lead-Out : No
Fill up missing offset samples with silence : Yes
Delete leading and trailing silent blocks : No
Null samples used in CRC calculations : Yes
Used interface : Native Win32 interface for Win NT & 2000
Used output format : User Defined Encoder
Selected bitrate : 896 kBit/s
Quality : High
Add ID3 tag : No
Command line compressor : C:\Program Files\Exact Audio Copy\Flac\flac.exe
Additional command line options : -V -8 %source%
TOC of the extracted CD
Track | Start | Length | Start sector | End sector
---------------------------------------------------------
1 | 0:00.00 | 5:00.29 | 0 | 22528
2 | 5:00.29 | 3:51.58 | 22529 | 39911
3 | 8:52.12 | 3:57.38 | 39912 | 57724
4 | 12:49.50 | 3:44.67 | 57725 | 74591
5 | 16:34.42 | 2:40.02 | 74592 | 86593
6 | 19:14.44 | 4:44.33 | 86594 | 107926
7 | 23:59.02 | 1:14.48 | 107927 | 113524
8 | 25:13.50 | 3:41.24 | 113525 | 130123
9 | 28:54.74 | 2:06.58 | 130124 | 139631
10 | 31:01.57 | 2:39.60 | 139632 | 151616
11 | 33:41.42 | 2:43.47 | 151617 | 163888
12 | 36:25.14 | 7:32.30 | 163889 | 197818
13 | 43:57.44 | 2:02.67 | 197819 | 207035
14 | 46:00.36 | 1:59.19 | 207036 | 215979
15 | 47:59.55 | 2:35.23 | 215980 | 227627
16 | 50:35.03 | 3:02.53 | 227628 | 241330
17 | 53:37.56 | 2:00.47 | 241331 | 250377
18 | 55:38.28 | 3:10.56 | 250378 | 264683
19 | 58:49.09 | 3:52.31 | 264684 | 282114
20 | 62:41.40 | 2:21.68 | 282115 | 292757
21 | 65:03.33 | 1:21.00 | 292758 | 298832
22 | 66:24.33 | 2:32.42 | 298833 | 310274
Range status and errors
Selected range
Filename J:\New Music\Gesualdo - Madrigals Book 4\Gesualdo - Madrigals Book 4.wav
Peak level 100.0 %
Extraction speed 4.3 X
Range quality 100.0 %
Test CRC 03330F9B
Copy CRC 03330F9B
Copy OK
No errors occurred
End of status report
==== Log checksum 3099A452BC1E27AD6001F0A54FB06BD40BC6D099DA065DA5839DEE7A78704227 ====



Показать сообщения:    

Текущее время: 08-Дек 17:25

Часовой пояс: UTC + 3


Вы не можете начинать темы
Вы не можете отвечать на сообщения
Вы не можете редактировать свои сообщения
Вы не можете удалять свои сообщения
Вы не можете голосовать в опросах
Вы не можете прикреплять файлы к сообщениям
Вы не можете скачивать файлы