Несколько дней из жизни Даниеля Отейя / Daniel Auteuil, Quelques jours avec lui (Пьер Шассанье / Pierre Chassagnieux, Седрик Мелон / Cedric Melon) [2012, документальный, SATRip]


Статистика раздачи [Обновить пиров]
Размер:  563 MB   |    Зарегистрирован:  8 месяцев 24 дня   |    Скачан:  0 раз

Полного источника не было: Никогда

Личеров:  3  [  0 KB/s  ]   Подробная статистика пиров
 
   
 
 
 

[Цитировать]

Несколько дней из жизни Даниеля Отейя / Daniel Auteuil, Quelques jours avec lui
Год выпуска: 2012
Страна: Франция
Жанр: документальный
Продолжительность: 00:50:25
Перевод: Субтитры
Русские субтитры: есть
Режиссер: Пьер Шассанье / Pierre Chassagnieux, Седрик Мелон / Cedric Melon
В ролях: Даниель Отей / Daniel Auteuil, Эммануель Беар / Emmanuelle Beart, Патрис Леконт / Patrice Leconte, Клод Берри / Claude Berri, Эрик Эльмоснино / Eric Elmosnino
Описание: За 40 лет карьеры, Даниель Отей сыграл множество разнообразных ролей. В 63 года актер признается: "Хочется поделиться своей жизнью, после того, как столько лет прятался за ролями".

Доп. информация:
Релиз
КАК ВСЕГДА БОЛЬШОЕ СПАСИБО:
Рип Animat
Перевод Е.Маньен
Субтитры Animat, grafd

Семпл: http://multi-up.com/870778
качество: SATRip
формат: AVI
Видео: 720x304 (2.37:1), 25 fps, XviD MPEG-4 ~1422 kbps avg, 0.26 bit/pixel
Аудио: 48 kHz, MPEG Layer 3, 2 ch, ~128.00 kbps avg - Французский

Субтитры

444
00:29:06,176 --> 00:29:08,304
Иногда он прятался в публике.
445
00:29:08,456 --> 00:29:10,538
Я выходил на сцену, оглядывался -
446
00:29:10,696 --> 00:29:12,186
пусто.
447
00:29:12,336 --> 00:29:14,623
Его не было.
Я на сцене был один.
448
00:29:14,776 --> 00:29:17,347
Зрители покатывались с хохоту,
449
00:29:17,496 --> 00:29:19,464
они-то знали, где он.
450
00:29:20,576 --> 00:29:25,343
А ты стоишь и зовешь:
"Скапен? Ты где?"
451
00:29:25,496 --> 00:29:29,785
И через 10 минут он отзывался:
"Тут я, тут".
452
00:29:29,936 --> 00:29:33,383
Мы много смеялись,
но и играли тоже много.
453
00:29:34,416 --> 00:29:37,499
Он ведь, между прочим,
"Ван Гога" из-за "Скапена"

MediaInfo

General
Complete name : D:\Раздачи\Daniel.Auteuil.Quelques.Jours.Avec.Lui.2012.FR.SATrip.Animat.fenixclub.avi
Format : AVI
Format/Info : Audio Video Interleave
File size : 563 MiB
Duration : 50mn 25s
Overall bit rate : 1 560 Kbps
Director : SATrip by Animat (fenixclub.com)
Writing library : VirtualDub build 32842/release
Video
ID : 0
Format : MPEG-4 Visual
Format profile : Advanced Simple@L5
Format settings, BVOP : 2
Format settings, QPel : No
Format settings, GMC : No warppoints
Format settings, Matrix : Default (MPEG)
Muxing mode : Packed bitstream
Codec ID : XVID
Codec ID/Hint : XviD
Duration : 50mn 25s
Bit rate : 1 422 Kbps
Width : 720 pixels
Height : 304 pixels
Display aspect ratio : 2.35:1
Frame rate : 25.000 fps
Color space : YUV
Chroma subsampling : 4:2:0
Bit depth : 8 bits
Scan type : Progressive
Compression mode : Lossy
Bits/(Pixel*Frame) : 0.260
Stream size : 513 MiB (91%)
Writing library : XviD 64
Audio
ID : 1
Format : MPEG Audio
Format version : Version 1
Format profile : Layer 3
Mode : Joint stereo
Mode extension : MS Stereo
Codec ID : 55
Codec ID/Hint : MP3
Duration : 50mn 25s
Bit rate mode : Constant
Bit rate : 128 Kbps
Channel(s) : 2 channels
Sampling rate : 48.0 KHz
Compression mode : Lossy
Stream size : 46.2 MiB (8%)
Alignment : Split accross interleaves
Interleave, duration : 40 ms (1.00 video frame)
Interleave, preload duration : 500 ms

Скриншоты

[teatrix.ru].t17126.torrent 
Торрент: Зарегистрирован [ 2016-03-17 00:48 ] · CEBF694EB0C4611DA1652701FC4993CFCACDD744

Скачать .torrent

Скачать

12 KB

Статус: проверено
Скачан: 0 раз
Размер: 563 MB
terms.php



Показать сообщения:    

Текущее время: 10-Дек 11:54

Часовой пояс: UTC + 3


Вы не можете начинать темы
Вы не можете отвечать на сообщения
Вы не можете редактировать свои сообщения
Вы не можете удалять свои сообщения
Вы не можете голосовать в опросах
Вы не можете прикреплять файлы к сообщениям
Вы можете скачивать файлы