Жан-Клод Бриали. Любовь к людям / Jean-Caude Brialy, Le gout des autres (Анри-Жан Серва / Henry-Jean Servat, Брюно Бувье / Bruno Bouvier) [2013, документальный, SATRip]


Статистика раздачи [Обновить пиров]
Размер:  1.05 GB   |    Зарегистрирован:  8 месяцев 17 дней   |    Скачан:  0 раз

Полного источника не было: Никогда

Личеров:  3  [  0 KB/s  ]   Подробная статистика пиров
 
   
 
 
 

[Цитировать]

Жан-Клод Бриали. Любовь к людям / Jean-Caude Brialy, Le gout des autres
Год выпуска: 2013
Страна: Франция
Жанр: документальный
Продолжительность: 01:24:54
Перевод: Субтитры
Русские субтитры: есть
Режиссер: Анри-Жан Серва / Henry-Jean Servat, Брюно Бувье / Bruno Bouvier
В ролях: Жан-Клод Бриали / Jean-Caude Brialy, Робер Оссейн / Robert Hossein, Анна Карина / Anna Karina, Марина Влади / Marina Vlady, Милен Демонжо / Mylene Demongeot, Пьер Ардити / Pierre Arditi, Эвелин Буи / Evelyne Bouix, Клаудия Кардинале / Claudia Cardinale, Ален Делон / Alain Delon, Даниель Дарье / Danielle Darrieux
Описание: Документальный фильм об актере Жан-Клоде Бриали (1933-2007). Биография, интервью, архивные кадры. Воспоминания его друзей Робера Оссейна, Пьера Ардити, Анны Карины, Марины Влади, Милен Демонжо, Клаудии Кардинале, Эвелин Буи и многих других... Фильм снимался в замке артиста и в его театре "Буфф-Паризьен".
Жан-Клод Бриали умер 30 мая 2007г.

Доп. информация:
Релиз
КАК ВСЕГДА БОЛЬШОЕ СПАСИБО:
Рип Animat
Перевод И.Рыбкиной
Субтитры Animat, grafd

Семпл: http://multi-up.com/871000
качество: SATRip
формат: AVI
Видео: 720x400 (1.80:1), 25 fps, XviD MPEG-4 ~1639 kbps avg, 0.23 bit/pixel
Аудио: 48 kHz, MPEG Layer 3, 2 ch, ~128.00 kbps avg - Французский

MediaInfo

General
Complete name : D:\Раздачи\Jean.Claude.Brialy.Le.Gout.Des.Autres.2013.FR.SATrip.Animat.fenixclub.avi
Format : AVI
Format/Info : Audio Video Interleave
File size : 1.05 GiB
Duration : 1h 24mn
Overall bit rate : 1 777 Kbps
Director : SATrip by Animat (fenixclub.com)
Writing application : VirtualDubMod 1.5.10.2 (build 2540/release)
Writing library : VirtualDubMod build 2540/release
Video
ID : 0
Format : MPEG-4 Visual
Format profile : Advanced Simple@L5
Format settings, BVOP : 2
Format settings, QPel : No
Format settings, GMC : No warppoints
Format settings, Matrix : Default (MPEG)
Muxing mode : Packed bitstream
Codec ID : XVID
Codec ID/Hint : XviD
Duration : 1h 24mn
Bit rate : 1 640 Kbps
Width : 720 pixels
Height : 400 pixels
Display aspect ratio : 16:9
Frame rate : 25.000 fps
Color space : YUV
Chroma subsampling : 4:2:0
Bit depth : 8 bits
Scan type : Progressive
Compression mode : Lossy
Bits/(Pixel*Frame) : 0.228
Stream size : 996 MiB (92%)
Writing library : XviD 64
Audio
ID : 1
Format : MPEG Audio
Format version : Version 1
Format profile : Layer 3
Mode : Joint stereo
Mode extension : MS Stereo
Codec ID : 55
Codec ID/Hint : MP3
Duration : 1h 24mn
Bit rate mode : Constant
Bit rate : 128 Kbps
Channel(s) : 2 channels
Sampling rate : 48.0 KHz
Compression mode : Lossy
Stream size : 77.7 MiB (7%)
Alignment : Aligned on interleaves
Interleave, duration : 40 ms (1.00 video frame)
Interleave, preload duration : 504 ms

Скриншоты

[teatrix.ru].t17127.torrent 
Торрент: Зарегистрирован [ 2016-03-17 00:50 ] · 0E7D387439592A8F025EDD3CC56B42E0262C8158

Скачать .torrent

Скачать

11 KB

Статус: проверено
Скачан: 0 раз
Размер: 1.05 GB
terms.php



Показать сообщения:    

Текущее время: 03-Дек 16:46

Часовой пояс: UTC + 3


Вы не можете начинать темы
Вы не можете отвечать на сообщения
Вы не можете редактировать свои сообщения
Вы не можете удалять свои сообщения
Вы не можете голосовать в опросах
Вы не можете прикреплять файлы к сообщениям
Вы можете скачивать файлы