Кислотный тест - Кен Кизи и Веселые Проказники / Acid Test - Ken Kesey And The Merry Band of Pranksters (Zane Kesey / Simon Babbs) [1999, документальный, Rock, LSD, DVDRip]


Статистика раздачи [Обновить пиров]
Размер:  891 MB   |    Зарегистрирован:  8 месяцев 24 дня   |    Скачан:  0 раз

Полного источника не было: Никогда

Личеров:  3  [  0 KB/s  ]   Подробная статистика пиров
 
   
 
 
 

[Цитировать]

Кислотный тест - Кен Кизи и Веселые Проказники / Acid Test - Ken Kesey And The Merry Band of Pranksters
directors cut
-Год выпуска: 1999
Страна: USA
Студия: Key-Z Productions
Жанр: документальный , Rock, LSD
Продолжительность: 00:56:35
Перевод: Не требуется
Русские субтитры: нет
Режиссер: Zane Kesey / Simon Babbs
Описание:
Фильм, съемки которого подробно описываются в романе Тома Вулфа "Электропрохладительный кислотный тест" (Tom Wolfe "The Electric Kool-Aid Acid Test").
Подлинные кадры, которые снимали во время своего безумного путешествия Кен Кизи вместе с "Проказниками". В течение 30 лет пленки лежали несмонтированными в архиве Кизи и лишь незадолго перед его смертью они все-таки были смонтированы.
Купив старый школьный автобус, «Проказники» раскрасили его в яркие психоделические цвета, назвали «Furthur» (модификация слова further — дальше, вариант перевода на русский - «Далше», то есть «дальше» без мягкого знака) и отправились в путешествие по Америке, которое виднейший публицист и историк ХХ века Жан Бодрийяр назвал «самым странным путешествием за всю историю человечества, после похода за золотым руном аргонавтов и сорокалетнего странствия Моисея по пустыне».
Семпл
Тип релиза: DVDRip
Контейнер: AVI
Видеокодек: DivX
Видео: anamorph 4:3, 684x466@684x512, 23.976 fps, DivX Codec 6.9.2 ~1998 kbps avg, 0.26 bit/pixe
Аудио: 48 kHz, AC3 Dolby Digital, 2/0 (L,R) ch, ~192 kbps

MediaInfo

General
Complete name : Acid Test - Ken Kesey And The Merry Band of Pranksters\Acid Test - Ken Kesey And The Merry Band of Pranksters.avi
Format : AVI
Format/Info : Audio Video Interleave
File size : 891 MiB
Duration : 56mn 39s
Overall bit rate : 2 200 Kbps
Writing application : VirtualDubMod 1.5.10.1 (build 2366/release)
Writing library : VirtualDubMod build 2366/release
Video
ID : 0
Format : MPEG-4 Visual
Format settings, BVOP : 1
Format settings, QPel : No
Format settings, GMC : No warppoints
Format settings, Matrix : Default (H.263)
Muxing mode : Packed bitstream
Codec ID : DX50
Codec ID/Hint : DivX 5
Duration : 56mn 39s
Bit rate : 1 998 Kbps
Width : 684 pixels
Height : 466 pixels
Display aspect ratio : 4:3
Frame rate : 23.976 fps
Color space : YUV
Chroma subsampling : 4:2:0
Bit depth : 8 bits
Scan type : Progressive
Compression mode : Lossy
Bits/(Pixel*Frame) : 0.261
Stream size : 810 MiB (91%)
Writing library : DivX 6.8.5 (UTC 2009-08-20)
Audio
ID : 1
Format : AC-3
Format/Info : Audio Coding 3
Mode extension : CM (complete main)
Codec ID : 2000
Duration : 56mn 37s
Bit rate mode : Constant
Bit rate : 192 Kbps
Channel(s) : 2 channels
Channel positions : Front: L R
Sampling rate : 48.0 KHz
Bit depth : 16 bits
Compression mode : Lossy
Stream size : 77.8 MiB (9%)
Alignment : Aligned on interleaves
Interleave, duration : 42 ms (1.00 video frame)
Interleave, preload duration : 512 ms
Title : English

скриншоты








Скриншоты








Acid Test [DVD5]
-
Сообщения из этой темы были выделены в отдельный топик Выделено из: Кислотный тест - Кен Кизи и Веселые Проказники / Acid Test - Ken Kesey And The... [4458201]
Гном
[teatrix.ru].t17138.torrent 
Торрент: Зарегистрирован [ 2016-03-17 00:46 ] · A7DB54058C9A0BC9E758DFF09BCD20AF5C4E3100

Скачать .torrent

Скачать

18 KB

Статус: проверено
Скачан: 0 раз
Размер: 891 MB
terms.php



Быстрый ответ

Имя:

      
Для отправки сообщений необходимо включить JavaScript
Показать сообщения:    

Текущее время: 10-Дек 13:46

Часовой пояс: UTC + 3


Вы можете начинать темы
Вы можете отвечать на сообщения
Вы не можете редактировать свои сообщения
Вы не можете удалять свои сообщения
Вы не можете голосовать в опросах
Вы не можете прикреплять файлы к сообщениям
Вы можете скачивать файлы