(Vocal Music) Aafje Heynis - Ombra mai fù (Bach, Handel, Brahms, Schubert, Franck, Dvorak, Gounod) - 2002, APE (image+.cue) lossless


 

[Цитировать]

Aafje Heynis - Ombra mai fù (Bach, Handel, Brahms, Schubert, Franck, Dvorak, Gounod)

Жанр: Vocal Music
Страна-производитель диска: The Netherlands
Год издания диска: 2002
Издатель (лейбл): Philips Classics
Номер по каталогу: 472 444-2
Дата записи: 1956-1962
Аудиокодек: APE
Тип рипа: image+.cue
Битрейт аудио: lossless
Продолжительность: 75'29
Источник: собственный рип
Наличие сканов в содержимом раздачи: да
Треклист - Исполнители:
Aafje Heynis - Ombra mai fù
Johann Sebastian Bach (1685-1750)
01 Erbarme dich (Matthaeus Passion BWV244) 7: 16
Walter Schneiderhan, violin
Wiener Philharmoniker
Hans Gillesberger
02 Bereite dich, Zion (Weihnachts Oratorium BWV248) 5:32
Wiener Philharmoniker
Hans Gillesberger
03 Es ist vollbracht (Johannes Passion BWV245) 5:36
Nikolaus Hübner, cello
Wiener Philharmoniker
Hans Gillesberger
George Frideric Handel (1685-1756)
04 He was despised (Messiah) 11 :08
05 0 thou that tellest good tidings to Zion (Messiah) 5:26
Wiener Philharmoniker
Hans Gillesberger
Johannes Brahms (1833-1897)
Vier ernste Gesänge Op.121
06 1. Denn es gehet dem Mensehen 4:26
07 2. leh wandte mieh 3:56
08 3. 0 Tod, wie bitter bist du 4:03
09 4. Wenn ieh mit Mensehen und mit Engelszungen redete 4:56
Johan van den Boogert, piano
Franz Schubert (1797-1828)
10 Ave Maria D.839 4:21
Pierre Palla, piano
César Franck (1822-1890)
11 Panis Angelieus 4:00
Simon C. Jansen, organ
Pro Musica Choir
Lex Karsemeijer
George Frideric Handel (1685-1756)
12 Ombra mai fù (Serse) 4:23
Pierre Palla, organ
Antonin Dvorák (1841·1904)
13 Als die alte Mutter Op. 55 NoA 2:24
Felix de Nobel, piano
Charles Gounod (1818·1893)
14 Ave Maria (after J.S. Bach: Prelude NO.1, BWV846) 3:18
Meindert Boekel, organ
Pro Musica Choir
Lex Karsemeijer
British Folksongs
15 Greensleeves 2:23
16 Comin' thro' the rye 0:53
Felix de Nobel, piano

Лог создания рипа

Exact Audio Copy V1.0 beta 3 from 29. August 2011
EAC extraction logfile from 7. June 2013, 0:59
Aafje Heynis / Ombra mai fú
Used drive : HL-DT-STDVD-RAM GSA-H55N Adapter: 0 ID: 0
Read mode : Secure
Utilize accurate stream : Yes
Defeat audio cache : Yes
Make use of C2 pointers : No
Read offset correction : 102
Overread into Lead-In and Lead-Out : No
Fill up missing offset samples with silence : Yes
Delete leading and trailing silent blocks : No
Null samples used in CRC calculations : Yes
Used interface : Native Win32 interface for Win NT & 2000
Used output format : Monkey's Audio Lossless Encoder
Selected bitrate : High Lossless Compression
Quality : High
Add ID3 tag : Yes
Command line compressor : C:\Program Files\Exact Audio Copy\Monkeys Audio\MAC.exe
Additional command line options : %dest% -t "Artist=%artist%" -t "Title=%title%" -t "Album=%albumtitle%" -t "Year=%year%" -t "Track=%tracknr%" -t "Genre=%genre%" mac.exe %source% %dest% -c3000 -v
TOC of the extracted CD
Track | Start | Length | Start sector | End sector
---------------------------------------------------------
1 | 0:00.33 | 7:22.00 | 33 | 33182
2 | 7:22.33 | 5:36.00 | 33183 | 58382
3 | 12:58.33 | 5:41.00 | 58383 | 83957
4 | 18:39.33 | 11:13.00 | 83958 | 134432
5 | 29:52.33 | 5:35.00 | 134433 | 159557
6 | 35:27.33 | 4:29.00 | 159558 | 179732
7 | 39:56.33 | 3:59.00 | 179733 | 197657
8 | 43:55.33 | 4:05.00 | 197658 | 216032
9 | 48:00.33 | 5:01.00 | 216033 | 238607
10 | 53:01.33 | 4:24.00 | 238608 | 258407
11 | 57:25.33 | 4:04.00 | 258408 | 276707
12 | 61:29.33 | 4:30.00 | 276708 | 296957
13 | 65:59.33 | 2:27.00 | 296958 | 307982
14 | 68:26.33 | 3:25.00 | 307983 | 323357
15 | 71:51.33 | 2:30.00 | 323358 | 334607
16 | 74:21.33 | 1:01.00 | 334608 | 339182
Range status and errors
Selected range
Filename E:\Muziek\Aafje Heynis - Ombra mai fú.wav
Peak level 95.8 %
Extraction speed 3.1 X
Range quality 100.0 %
Test CRC 2D03FB51
Copy CRC 2D03FB51
Copy OK
No errors occurred
AccurateRip summary
Track 1 accurately ripped (confidence 2) [37855314] (AR v1)
Track 2 accurately ripped (confidence 2) [D07DB311] (AR v1)
Track 3 accurately ripped (confidence 2) [12F5880F] (AR v1)
Track 4 accurately ripped (confidence 2) [626E1459] (AR v1)
Track 5 accurately ripped (confidence 2) [BEDDF399] (AR v1)
Track 6 accurately ripped (confidence 2) [121EE866] (AR v1)
Track 7 accurately ripped (confidence 2) [CABE0D9B] (AR v1)
Track 8 accurately ripped (confidence 2) [D22EF0B3] (AR v1)
Track 9 accurately ripped (confidence 2) [8CDE38CF] (AR v1)
Track 10 accurately ripped (confidence 2) [6861EB39] (AR v1)
Track 11 accurately ripped (confidence 2) [DFDF1561] (AR v1)
Track 12 accurately ripped (confidence 2) [1F62FBA0] (AR v1)
Track 13 accurately ripped (confidence 2) [F519B3EA] (AR v1)
Track 14 accurately ripped (confidence 2) [6E268344] (AR v1)
Track 15 accurately ripped (confidence 2) [F88A981D] (AR v1)
Track 16 accurately ripped (confidence 2) [C4DBB2DB] (AR v1)
All tracks accurately ripped
End of status report
---- CUETools DB Plugin V2.1.3
[CTDB TOCID: 6u8BlXatMe5JkIfAH8UcGmnN7r8-] disk not present in database, Submit result: discs with pregaps not supported in this protocol version
==== Log checksum CF7E43178C902C8EC9970385ACCFC95DD9842A1CF083A37B74593DF90F98CB6B ====

Содержание индексной карты (.CUE)

REM GENRE Vocal
REM DATE 2002
REM DISCID F111AA10
REM COMMENT "ExactAudioCopy v1.0b3"
CATALOG 0028942610927
PERFORMER "Aafje Heynis"
TITLE "Ombra mai fú"
FILE "Aafje Heynis - Ombra mai fú.ape" WAVE
TRACK 01 AUDIO
TITLE "Matthäus-Passion - Erbarme dich (J.S. Bach)"
PERFORMER "Aafje Heynis"
ISRC 000000000000
INDEX 00 00:00:00
INDEX 01 00:00:33
TRACK 02 AUDIO
TITLE "Weihnachts-Oratorium - Bereite dich, Zion (J.S. Bach)"
PERFORMER "Aafje Heynis"
ISRC 000000000000
INDEX 00 07:18:33
INDEX 01 07:22:33
TRACK 03 AUDIO
TITLE "Johannes-Passion - Es ist vollbracht (J.S. Bach)"
PERFORMER "Aafje Heynis"
ISRC 000000000000
INDEX 00 12:55:33
INDEX 01 12:58:33
TRACK 04 AUDIO
TITLE "Messiah - He was despised (G.F. Händel)"
PERFORMER "Aafje Heynis"
ISRC 000000000000
INDEX 00 18:35:33
INDEX 01 18:39:33
TRACK 05 AUDIO
TITLE "Messiah - O thou that tellest (G.F. Händel)"
PERFORMER "Aafje Heynis"
ISRC 000000000000
INDEX 00 29:50:33
INDEX 01 29:52:33
TRACK 06 AUDIO
TITLE "Vier ernste Gesänge - Denn es gehet dem Menschen (J. Brahms)"
PERFORMER "Aafje Heynis"
ISRC 000000000000
INDEX 00 35:21:33
INDEX 01 35:27:33
TRACK 07 AUDIO
TITLE "Vier ernste Gesänge - Ich wandte mich (J. Brahms)"
PERFORMER "Aafje Heynis"
ISRC 000000000000
INDEX 00 39:55:33
INDEX 01 39:56:33
TRACK 08 AUDIO
TITLE "Vier ernste Gesänge - O Tod, wie bitter bist du (J. Brahms)"
PERFORMER "Aafje Heynis"
ISRC 000000000000
INDEX 00 43:53:33
INDEX 01 43:55:33
TRACK 09 AUDIO
TITLE "Vier ernste Gesänge - Wenn ich mit Menschen- und miet Engelszungen redete (J...."
PERFORMER "Aafje Heynis"
ISRC 000000000000
INDEX 00 47:58:33
INDEX 01 48:00:33
TRACK 10 AUDIO
TITLE "Ave Maria (F. Schubert)"
PERFORMER "Aafje Heynis"
ISRC 000000000000
INDEX 00 52:57:33
INDEX 01 53:01:33
TRACK 11 AUDIO
TITLE "Panis Angelicus (C. Franck)"
PERFORMER "Aafje Heynis"
ISRC 000000000000
INDEX 00 57:23:33
INDEX 01 57:25:33
TRACK 12 AUDIO
TITLE "Serse - Ombra mai fù (G.F. Händel)"
PERFORMER "Aafje Heynis"
ISRC 000000000000
INDEX 00 61:27:33
INDEX 01 61:29:33
TRACK 13 AUDIO
TITLE "Als die alte Mutter, Op. 55/4 (A. Dvorak)"
PERFORMER "Aafje Heynis"
ISRC 000000000000
INDEX 00 65:54:33
INDEX 01 65:59:33
TRACK 14 AUDIO
TITLE "Ave Maria (C. Gounod)"
PERFORMER "Aafje Heynis"
ISRC 000000000000
INDEX 00 68:24:33
INDEX 01 68:26:33
TRACK 15 AUDIO
TITLE "Greensleeves (Anonymous)"
PERFORMER "Aafje Heynis"
ISRC 000000000000
INDEX 00 71:47:33
INDEX 01 71:51:33
TRACK 16 AUDIO
TITLE "Comin' thro' the rye (Anonymous)"
PERFORMER "Aafje Heynis"
ISRC 000000000000
INDEX 00 74:15:33
INDEX 01 74:21:33



Показать сообщения:    

Текущее время: 09-Дек 14:39

Часовой пояс: UTC + 3


Вы не можете начинать темы
Вы не можете отвечать на сообщения
Вы не можете редактировать свои сообщения
Вы не можете удалять свои сообщения
Вы не можете голосовать в опросах
Вы не можете прикреплять файлы к сообщениям
Вы не можете скачивать файлы