"Те, с которыми я... Марлен Хуциев". (2 части из 2) [Культура 11.06.2013] (Валерий Харченко) [2013 г., Документальный, Авторское ТВ, SATRip]


Статистика раздачи [Обновить пиров]
Размер:  619 MB   |    Зарегистрирован:  8 месяцев 23 дня   |    Скачан:  0 раз

Полного источника не было: Никогда

 
   
 
 
 

[Цитировать]

Марлен Хуциев. (2 части из 2)
Те, с которыми я... Авторская программа Сергея Соловьева.
Год выпуска: 2013
Дата эфира: 10-11.06.2013
Страна: Россия
Жанр: Документальный
Продолжительность: по ~26 мин.
Автор сценария и режиссер: Сергей Соловьев
Режиссер: Валерий Харченко
Перевод: Не требуется
Русские субтитры: нет
Описание: В начале 1960-х в Москву приехал итальянский режиссер Федерико Феллини. Первое, что он попросил ему показать, - материалы к фильму Марлена Хуциева "Застава Ильича". Про этот простой и вместе с тем поэтичный фильм ходили легенды еще до того, как он вышел на экраны. Его называли манифестом кинооттепели, герои времени - поколение шестидесятников - сыграли самих себя. И, как ни странно, именно этот фильм ждала невероятно трудная дорога к зрителю.

Релиз группы:
Качество: SATRip
Формат: AVI
Видео: 704x400 (1.76:1), 25 fps, DivX 6.8.5 ~1479 kbps, 0.21 bit/pixel
Аудио: 48 kHz, MPEG Layer 3, 2 ch, ~224 kbps avg

MediaInfo:

Общее
Полное имя : D:\Torrents\Marlen_Huciev_(Kul'tura)_[rutracker.org]\10.06.2013_Marlen_Huciev-1.avi
Формат : AVI
Формат/Информация : Audio Video Interleave
Размер файла : 318 Мбайт
Продолжительность : 25 м.
Общий поток : 1712 Кбит/сек
Программа кодирования : VirtualDubMod 1.6.0.0 SURROUND (build 2560/release)
Библиотека кодирования : VirtualDubMod build 2560/release
Видео
Идентификатор : 0
Формат : MPEG-4 Visual
Параметр BVOP формата : 1
Параметр QPel формата : Нет
Параметр GMC формата : Без точки перехода
Параметр матрицы формата : Default (H.263)
Режим смешивания : Сжатый битовый поток
Идентификатор кодека : DX50
Идентификатор кодека/Подсказка : DivX 5
Продолжительность : 25 м.
Битрейт : 1479 Кбит/сек
Ширина : 704 пикселя
Высота : 400 пикселей
Соотношение сторон : 5:4
Соотношение сторон в оригинале : 16:9
Частота кадров : 25,000 кадров/сек
Цветовое пространство : YUV
Субдискретизация насыщенности : 4:2:0
Битовая глубина : 8 бит
Тип развёртки : Прогрессивная
Метод сжатия : С потерями
Бит/(Пиксели*Кадры) : 0.210
Размер потока : 275 Мбайт (86%)
Библиотека кодирования : DivX 6.8.5 (UTC 2009-08-20)
Аудио
Идентификатор : 1
Формат : MPEG Audio
Версия формата : Version 1
Профиль формата : Layer 3
Режим : Joint stereo
Расширение режима : MS Stereo
Идентификатор кодека : 55
Идентификатор кодека/Подсказка : MP3
Продолжительность : 25 м.
Вид битрейта : Постоянный
Битрейт : 224 Кбит/сек
Каналы : 2 канала
Частота : 48,0 КГц
Метод сжатия : С потерями
Размер потока : 41,7 Мбайт (13%)
Выравнивание : Разделение по промежуткам
Продолжительность промежутка : 40 мс. (1,00 видеокадр)
Время предзагрузки промежутка : 500 мс.
Библиотека кодирования : LAME3.99r
Настройки программы : -m j -V 4 -q 3 -lowpass 19.4 -b 224

Скриншоты (превью, увеличение по клику):

Список частей:01. Марлен Хуциев. Часть 1-я. (эфир_10.06.2013):

В начале 1960-х в Москву приехал итальянский режиссер Федерико Феллини. Первое, что он попросил ему показать, - материалы к фильму Марлена Хуциева "Застава Ильича". Про этот простой и вместе с тем поэтичный фильм ходили легенды еще до того, как он вышел на экраны. Его называли манифестом кинооттепели, герои времени - поколение шестидесятников - сыграли самих себя. И, как ни странно, именно этот фильм ждала невероятно трудная дорога к зрителю.Имя файла: 10.06.2013_Marlen_Huciev-1.avi

02. Марлен Хуциев. Часть 2-я. (эфир_11.06.2013):

Уже больше десяти лет Марлен Мартынович Хуциев работает над фильмом "Невечерняя" о двух встречах двух гениев русской литературы - Толстого и Чехова - на рубеже двух столетий. Сам режиссер и его поколение оказались на стыке не просто веков, но разных эпох со своими кумирами, ценностями и требованиями.Имя файла: 11.06.2013_Marlen_Huciev-2.avi
Мои раздачи выпусков этого цикла:
1. Русский мужик. Михаил Ульянов (Все 3 части) [Культура_13.01.2011] (Валерий Харченко) [2011 г., Документальный, Авторское ТВ, SATRip] здесь: http://teatrix.ru/viewtopic.php?t=3366484
2. Те, с которыми я... "Иннокентий Смоктуновский". (2 части) [Культура_22.02.2011] (Валерий Харченко) [2011 г., Документальный, Авторское ТВ, SATRip] здесь:http://teatrix.ru/viewtopic.php?t=3440695
3. Те, с которыми я... "Алексей Баталов". (2 части) [Культура_04.11.2011] (Валерий Харченко) [2011 г., Документальный, Авторское ТВ, SATRip] здесь: http://teatrix.ru/viewtopic.php?t=3804730
4. Те, с которыми я... "Михаил Жванецкий". (2 части из 2) [Культура_11.01.2012] (Валерий Харченко) [2012 г., Документальный, Авторское ТВ, SATRip] здесь: http://teatrix.ru/viewtopic.php?t=3897688
5. Те, с которыми я... "Александр Збруев". (2 части из 2) [Культура_21.02.2012] (Валерий Харченко) [2012 г., Документальный, Авторское ТВ, SATRip] здесь:
http://teatrix.ru/viewtopic.php?t=3952419
6. Те, с которыми я... Сергей Гармаш. (2 части из 2) [Культура_14.06.2012] (Валерий Харченко) [2012 г., Документальный, Авторское ТВ, SATRip] здесь: http://teatrix.ru/viewtopic.php?t=4093948
7. Те, с которыми я... "Сергей Бондарчук". (1-я часть из 2) [Культура_29.04.2013] (Валерий Харченко) [2013 г., Документальный, Авторское ТВ, SATRip] здесь: http://teatrix.ru/viewtopic.php?t=4428234
8. Те, с которыми я... "Николай Пастухов". (2 части из 2) [Культура_12.05.2013] (Валерий Харченко) [2013 г., Документальный, Авторское ТВ, SATRip] здесь:
http://teatrix.ru/viewtopic.php?t=4442795
Добавил 2-ю часть. (эфир_11.06.2013). Пожалуйста, обновите торрент-файл.
На раздаче круглосуточно, ~19 Mb/s.
[teatrix.ru].t17144.torrent 
Торрент: Зарегистрирован [ 2016-03-17 00:20 ] · 2AF0EC2B1A9BFEA3DD71377BCB16F6B11AB15609

Скачать .torrent

Скачать

13 KB

Статус: проверено
Скачан: 0 раз
Размер: 619 MB
terms.php



Показать сообщения:    

Текущее время: 10-Дек 00:18

Часовой пояс: UTC + 3


Вы не можете начинать темы
Вы не можете отвечать на сообщения
Вы не можете редактировать свои сообщения
Вы не можете удалять свои сообщения
Вы не можете голосовать в опросах
Вы не можете прикреплять файлы к сообщениям
Вы можете скачивать файлы